Torrentów: 142095      Ranga: Gosc               Stwórz konto Odzyskiwanie hasła


Kategorie
Filmy
 ⇒ DivX - XviD
 ⇒ RMVB
 ⇒ DVD-R
 ⇒ TV + Seriale
 ⇒ HDTV-HD
 ⇒ VCD - SVCD
 ⇒ x 264
 ⇒  3D
Gry
 ⇒ Gry PC
 ⇒ Gry Konsole
 ⇒ xbox360
Muzyka
 ⇒ Muzyka
 ⇒ Teledyski/Koncerty
Książki - Komiksy
 ⇒ E-Booki + Audio
 ⇒ Komiksy
Inne
 ⇒ XXX
 ⇒ Dla Dzieci
 ⇒ Sport
 ⇒ Pozostałe - Różne
 ⇒ Manga - Anime
 ⇒ GSM - PDA
Aplikacje
 ⇒ Windows
 ⇒ Linux + Macintosh



Detale torrenta

Legenda Kołowrata-Furious (2017) [BDRip 1080p x264 by alE13 AC3/DTS][Napisy PL/Eng][Rus/Ger]
Kondycja:
Dodane: 10/03/2018
Rozmiar: 12.96 GB
Uploader: alE13

seed(ów): 1
leecher(ów): 0
Pobrane: 0





Ocena: N/A



http://www.imdb.com/title/tt6054874/

Audio Russian and Germany DTS w osobnym pliku.
Film zawiera Sample.


premiera:    30-11-2017
produkcja:   Russia
gataunek:    Przygodowy, Akcja, Historyczny
reżyseria:   Dzhanik Fayziev, Ivan Shurkhovetskiy
scenariusz:  Dmitriy Paltsev, Dmitriy Raevskiy
czas:        01:57:52

opis:

A story of a legendary battle, where seventeen fearless warriors defend their land against an army
of thousands well-trained soldiers. In 13th-century Mongol warrior hordes and their leader, Batu Khan,
control most of the known world. As the Mongols move towards Europe they invade the last Russian
prin*censored*lity standing in their way. Little do they know, their plans are about to be ruined by a small
detachment of heroic strong men led by a mysterious brave warrior. This is a story about courage,
endurance and self-sacrifice for the sake of one's country. This is the story of Evpaty the Furious.

I recommend this movie...

Historia legendarnej bitwy, w której 17 wojowników broni swojej ziemi przed armią tysięcy dobrze wyszkolonych
wojsk mongolskich i ich wodza, Batu Kana w XIII-wieku. Mongołowie zbliżają się do Europy, atakują ostatnie rosyjskie Księstwo.

Polecam, fajna zabawa.... po rusku.

http://i.imgur.com/AsLAmC2.jpg
http://i.imgur.com/9RJEZkJ.jpg
http://i.imgur.com/aVXt9kF.jpg
http://i.imgur.com/35eqrw1.jpg

obsada:

Ilya Malakov, Aleksey Serebryakov, Aleksandr Ilin

dane techniczne:

Audio:

Legenda o Kolovrate (2017)-alE13_DTS.mka

Hash: D05BF6EC6A57F789
Format: Matroska
Czas: 01:57:52.235
Rozmiar: 5.10 GiB (5476181918)

Audio (0):
Kodek:         (DTS-HD) DTS-HD
Format:       DTS
Kanały:       6 channels
BitRate:       2 090 kb/s / 1 509 kb/s
Tytuł:         Legenda o Kolovrate (2017)-alE13_DTS Master
Język:       Russian

Audio (1):
Kodek:         (DTS-HD) DTS-HD
Format:       DTS
Kanały:       6 channels
BitRate:       4 100 kb/s / 1 509 kb/s
Tytuł:         Legenda o Kolovrate (2017)-alE13_DTS Master
Język:       German


Napisy (0):
Kodek:         (S_TEXT/UTF8) UTF-8
Format:       UTF-8
Język:       German (Legenda o Kolovrate (2017)-alE13)

Video:

Legenda o Kolovrate (2017)-alE13.mkv
Format                      : Matroska
Format version              : Version 4 / Version 2
File size                   : 7.81 GiB
Duration                    : 1 h 57 min
Overall bit rate            : 9 489 kb/s
Movie name                  : Legenda o Kolovrate (2017)-alE13
Encoded date                : UTC 2018-03-10 06:54:39
Writing application         : mkvmerge v8.1.0 ('Psychedelic Postcard') 64bit
Writing library             : libebml v1.3.1 + libmatroska v1.4.2
Cover                       : Yes
Attachments                 : Cover.jpg

Video
ID                          : 1
Format                      : AVC
Format/Info                 : Advanced Video Codec
Format profile              : High@L4.1
Format settings, CABAC      : Yes
Format settings, ReFrames   : 2 frames
Codec ID                    : V_MPEG4/ISO/AVC
Duration                    : 1 h 57 min
Bit rate                    : 9 038 kb/s
Width                       : 1 920 pixels
Height                      : 800 pixels
Display aspect ratio        : 2.40:1
Frame rate mode             : Constant
Frame rate                  : 23.976 (24000/1001) FPS
Color space                 : YUV
Chroma subsampling          : 4:2:0
Bit depth                   : 8 bits
Scan type                   : Progressive
Bits/(Pixel*Frame)          : 0.245
Stream size                 : 7.44 GiB (95%)
Title                       : Legenda o Kolovrate (2017)-alE13
Writing library             : x264 core 142
Default                     : Yes
Forced                      : No
Color range                 : Limited
Color primaries             : BT.709
Transfer characteristics    : BT.709
Matrix coefficients         : BT.709

Audio
ID                          : 2
Format                      : AC-3
Format/Info                 : Audio Coding 3
Mode extension              : CM (complete main)
Format settings, Endianness : Big
Codec ID                    : A_AC3
Duration                    : 1 h 57 min
Bit rate mode               : Constant
Bit rate                    : 448 kb/s
Channel(s)                  : 6 channels
Channel positions           : Front: L C R, Side: L R, LFE
Sampling rate               : 48.0 kHz
Frame rate                  : 31.250 FPS (1536 spf)
Compression mode            : Lossy
Stream size                 : 378 MiB (5%)
Title                       : Legenda o Kolovrate (2017)-alE13_AC3
Language                    : Russian
Default                     : No
Forced                      : No

Text #1
ID                          : 3
Format                      : UTF-8
Codec ID                    : S_TEXT/UTF8
Codec ID/Info               : UTF-8 Plain Text
Duration                    : 1 h 51 min
Bit rate                    : 23 b/s
Count of elements           : 705
Stream size                 : 19.5 KiB (0%)
Title                       : Legenda o Kolovrate (2017)-alE13
Language                    : Polish
Default                     : Yes
Forced                      : No

Text #2
ID                          : 4
Format                      : UTF-8
Codec ID                    : S_TEXT/UTF8
Codec ID/Info               : UTF-8 Plain Text
Duration                    : 1 h 51 min
Bit rate                    : 27 b/s
Count of elements           : 744
Stream size                 : 22.8 KiB (0%)
Title                       : Legenda o Kolovrate (2017)-alE13
Language                    : English
Default                     : No
Forced                      : No

Menu
00:00:00.000                : en:00:00:00.000
00:08:35.097                : en:00:08:35.098
00:18:09.338                : en:00:18:09.338
00:28:31.919                : en:00:28:31.919
00:37:28.455                : en:00:37:28.455
00:47:46.822                : en:00:47:46.822
00:59:16.303                : en:00:59:16.303
01:10:23.761                : en:01:10:23.761
01:17:08.374                : en:01:17:08.374
01:31:40.412                : en:01:31:40.412
01:40:22.516                : en:01:40:22.516
01:47:39.244                : en:01:47:39.244


Podobne torrenty
[HDTV-HD] Szybcy i wciekli 8-The Fate of the Furious (2017)-alE13[BRRip 1080p x264 by alE13 AC3/DTS]Napisy PL/Eng][Eng]
[HDTV-HD] 2Pack:Legenda-All Eyez on Me (2017)[BRRip 1080p x264 by alE13 AC3/DTS][Napisy PL/Eng/Esp][Eng]
[x 264] Krl Artur: Legenda Miecza-King Arthur: Legend of the Sword (2017)[WEBRip 1080p x264 by alE13 AC3][Napisy PL][Eng]
[ 3D] Krl Artur: Legenda Miecza-King Arthur: Legend of the Sword 3D (2017)[BRRip 1080p x264 by alE13 AC3/DTS][Lektor i Napisy PL/Eng/Multi][Eng]
[HDTV-HD] Gun Shy (2017) [BDRip 1080p x264 by alE13 AC3/DTS][Napisy PL/Eng][Eng]
[HDTV-HD] Rendel (2017)[BDRip 1080p x264 by alE13 AC3][Napisy PL/Eng/Ger][Ger]
[HDTV-HD] First Kill (2017)[BDRip 1080p x264 by alE13 AC3][Napisy PL/Eng][Eng]
[HDTV-HD] Check Point (2017) [BDRip 1080p x264 by alE13 AC3/DTS][Napisy PL/Eng][Eng]
[HDTV-HD] Atomic Blonde (2017)[BDRip 1080p x264 by alE13 AC3/DTS][Napisy PL/Eng][Eng]
[HDTV-HD] Matylda-Mathilde (2017)[BDRip 1080p x264 by alE13 AC3/DTS][Napisy PL][Eng]
Szczegóły torrenta
Trackerhttp://tracker.torrentyorg.pl/announce
Multitracker http://tracker.torrentyorg.pl/announce
udp://p4p.arenabg.ch:1337/announce
udp://tracker.coppersurfer.tk:6969/announce
udp://tracker.leechers-paradise.org:6969/announce
udp://inferno.demonoid.pw:3391/announce
udp://tracker.opentrackr.org:1337/announce
udp://tracker.ilibr.org:80/announce
http://tracker.devil-torrents.pl/announce

Kategoria:Filmy » HDTV-HD
Dodane10/03/2018 08:03:58
Ostatnie Uaktualnienie10/03/2018 08:25:58
Pokaż/Ukryj pliki:
16 plików
NIKT JESZCZE NIE DODAŁ KOMENTARZA

DODAJ KOMENTARZ
Więcej Emoticon



Wstecz

Żaden z opisanych na stronie plików nie jest przetrzymywany na serwerze. Administrator strony immortaltorrent.pl nie może ponieść konsekwencji prawnych za to co użytkownicy zamieszczają lub piszą na stronie.
Nie możesz używać tego serwisu do rozpowszechniania lub ściągania materiałów do których nie masz odpowiednich praw lub licencji. Użytkownicy zobowiązani są do przestrzeganie tych zasad.
Rejestracja konta jest jednoznaczna z akceptacją zasad.

2018 © immortaltorrent.pl


Najlepsze strony Torrentowe