Torrentów: 135480      Ranga: Go¶ć               Stwórz konto Odzyskiwanie hasła


Kategorie
Filmy
 ⇒ DivX - XviD
 ⇒ RMVB
 ⇒ DVD-R
 ⇒ TV + Seriale
 ⇒ HDTV-HD
 ⇒ VCD - SVCD
 ⇒ x 264
 ⇒  3D
Gry
 ⇒ Gry PC
 ⇒ Gry Konsole
 ⇒ xbox360
Muzyka
 ⇒ Muzyka
 ⇒ Teledyski/Koncerty
Ksi±żki - Komiksy
 ⇒ E-Booki + Audio
 ⇒ Komiksy
Inne
 ⇒ XXX
 ⇒ Dla Dzieci
 ⇒ Sport
 ⇒ Pozostałe - Różne
 ⇒ Manga - Anime
 ⇒ GSM - PDA
Aplikacje
 ⇒ Windows
 ⇒ Linux + Macintosh



Detale torrenta

Nieuchwytni m¶ciciele-The Elusive Avengers (1967)[WebRip 1080p x264 by alE13 AC3][Lektor i Napisy Eng][Rus]
Kondycja:
Dodane: 13/08/2017
Rozmiar: 7.52 GB
Uploader: alE13

seed(ów): 1
leecher(ów): 0
Pobrane: 0





Ocena: N/A



http://www.imdb.com/title/tt0060747/
http://www.filmweb.pl/film/Nieuchwytni+m%C5%9Bciciele-1966-101070

Oryginalny tytuł: "Neulovimye mstiteli"
Plik zawiera Sample.


reżyseria: Edmond Keosayan
scenariusz: Edmond Keosayan
gatunek: Przygodowy
produkcja: ZSRR
premiera: 03-11-1967
muzyka:         Boris Mokrousov
zdjęcia:        Fyodor Dobronravov
czas:           1h 13min

opis:

A group of teenagers named "Imperceptible avengers" fight on the side of red army during the civil war in Russia.

Rok 1920, trwa wojna domowa. Nastoletni Dańka i jego siostra Ksanka, razem z Walerk± i Jaszk± Cyganem, wymierzaj±
sprawiedliwo¶ć wojskom atamana Burnasza, odpowiedzialnym za ¶mierć ich ojca. Po jednej z akcji, nastoletni m¶ciciele
postanawiaj± wykorzystać podobieństwo do bratanka atamana, i przedrzeć się do obozu wroga. Dańka wpada w ręce Kozaków...
Jeden z największych hitów radzieckiego kina, z frekwencj± ponad 60 mln widzów w 1966 roku.

http://i.imgur.com/AVvmODL.jpg
http://i.imgur.com/cUqcAJM.jpg
http://i.imgur.com/gGovpKG.jpg
http://i.imgur.com/wJJ7qbX.jpg

obsada:

Viktor Kosykh, Mikhail Metyolkin, Vasiliy Vasilev

dane techniczne:

The Elusive Revengers (1967)-alE13.mkv
Format                      : Matroska
Format version              : Version 4 / Version 2
File size                   : 7.47 GiB
Duration                    : 1 h 13 min
Overall bit rate mode       : Variable
Overall bit rate            : 14.5 Mb/s
Encoded date                : UTC 2017-08-13 04:16:31
Writing application         : mkvmerge v8.1.0 ('Psychedelic Postcard') 64bit
Writing library             : libebml v1.3.1 + libmatroska v1.4.2
Cover                       : Yes
Attachments                 : Cover.jpg

Video
ID                          : 1
Format                      : AVC
Format/Info                 : Advanced Video Codec
Format profile              : High@L4
Format settings, CABAC      : Yes
Format settings, RefFrames  : 3 frames
Codec ID                    : V_MPEG4/ISO/AVC
Duration                    : 1 h 13 min
Bit rate mode               : Variable
Bit rate                    : 13.8 Mb/s
Maximum bit rate            : 20.0 Mb/s
Width                       : 1 920 pixels
Height                      : 856 pixels
Display aspect ratio        : 2.25:1
Frame rate mode             : Constant
Frame rate                  : 25.000 FPS
Standard                    : PAL
Color space                 : YUV
Chroma subsampling          : 4:2:0
Bit depth                   : 8 bits
Scan type                   : Progressive
Bits/(Pixel*Frame)          : 0.335
Stream size                 : 7.11 GiB (95%)
Title                       : The Elusive Revengers (1967)-alE13
Default                     : Yes
Forced                      : No
Color range                 : Limited
Color primaries             : BT.709
Transfer characteristics    : BT.709
Matrix coefficients         : BT.709

Audio #1
ID                          : 2
Format                      : AC-3
Format/Info                 : Audio Coding 3
Format settings, Endianness : Big
Codec ID                    : A_AC3
Duration                    : 1 h 12 min
Bit rate mode               : Constant
Bit rate                    : 256 kb/s
Channel(s)                  : 2 channels
Channel positions           : Front: L R
Sampling rate               : 44.1 kHz
Frame rate                  : 28.711 FPS (1536 SPF)
Bit depth                   : 16 bits
Compression mode            : Lossy
Stream size                 : 134 MiB (2%)
Title                       : The Elusive Revengers (1967)_AC3
Language                    : Polish
Service kind                : Complete Main
Default                     : Yes
Forced                      : No

Audio #2
ID                          : 3
Format                      : AC-3
Format/Info                 : Audio Coding 3
Format settings, Endianness : Big
Codec ID                    : A_AC3
Duration                    : 1 h 13 min
Bit rate mode               : Constant
Bit rate                    : 448 kb/s
Channel(s)                  : 6 channels
Channel positions           : Front: L C R, Side: L R, LFE
Sampling rate               : 48.0 kHz
Frame rate                  : 31.250 FPS (1536 SPF)
Bit depth                   : 16 bits
Compression mode            : Lossy
Delay relative to video     : 2 s 107 ms
Stream size                 : 236 MiB (3%)
Title                       : The Elusive Revengers (1967)_AC3
Language                    : Russian
Service kind                : Complete Main
Default                     : No
Forced                      : No

Text
ID                          : 4
Format                      : UTF-8
Codec ID                    : S_TEXT/UTF8
Codec ID/Info               : UTF-8 Plain Text
Duration                    : 1 h 12 min
Bit rate                    : 27 b/s
Count of elements           : 372
Stream size                 : 14.8 KiB (0%)
Title                       : The Elusive Revengers (1967)-alE13
Language                    : English
Default                     : No
Forced                      : No

Menu
00:00:00.000                : en:Chapter 1
00:06:30.600                : en:Chapter 2
00:11:01.800                : en:Chapter 3
00:18:51.000                : en:Chapter 4
00:26:24.000                : en:Chapter 5
00:28:53.400                : en:Chapter 6
00:40:48.600                : en:Chapter 7
00:45:22.800                : en:Chapter 8
00:48:29.400                : en:Chapter 9
00:55:09.600                : en:Chapter 10
01:00:57.600                : en:Chapter 11
01:05:46.200                : en:Chapter 12
Podobne torrenty
[HDTV-HD] Zachodni Szlak-The Way West (1967)[BRRip 1080p x264 by alE13 AC3/DTS][Lektor i Napisy PL][Eng]
[HDTV-HD] Nevada Smith (1966)[WEBRip.1080p.x264 by alE13.AC3][Lektor i Napisy PL/Eng][Eng]
[HDTV-HD] Smoking-The Tuxedo (2002)[WEBRip 1080p x264 by alE13 AC3][Lektor i Napisy PL/Eng][Eng]
[HDTV-HD] Imperium-Empire (2002)[WEBRip 1080p x264 by alE13 AC3][Lektor i Napisy PL/Eng][Eng]
[HDTV-HD] Kapitan Ron-Captain Ron (1992)[WEBRip 1080p x264 by alE13 AC3][Lektor i Napisy PL/Eng][Eng]
[HDTV-HD] Mumia-The Mummy (2017)[WebRip 1080p x264 by alE13 AC3][Lektor i Napisy PL/Eng][Eng]
[HDTV-HD] Mumia-The Mummy (2017)[WebRip 1080p x264 by alE13 AC3][Lektor i Napisy PL/Eng][Eng]
[HDTV-HD] Tajemnica Syriusza-Screamers (1995)[WEBRip 1080p x264 by alE13 AC3][Lektor i Napisy PL/Eng][Eng]
[HDTV-HD] Czarownice z Salem-The Crucible (1996)[WEBRip 1080p x264 by alE13 AC3][Lektor i napisy PL/Eng][Eng]
[HDTV-HD] Wersety zbrodni-A Murder of Crows (1998)[WEBRip 1080p x264 by alE13 AC3][Lektor i Napisy Eng][Eng]
Szczegóły torrenta
Trackerhttp://tracker.devil-torrents.pl/announce
Multitracker http://tracker.devil-torrents.pl/announce
http://tracker.torrentyorg.pl/announce
udp://tracker.opentrackr.org:1337/announce
udp://tracker.leechers-paradise.org:6969/announce
udp://tracker.ilibr.org:80/announce
udp://tracker.coppersurfer.tk:6969/announce
udp://p4p.arenabg.ch:1337/announce
udp://inferno.demonoid.pw:3391/announce

Kategoria:Filmy » HDTV-HD
Dodane13/08/2017 07:08:59
Ostatnie Uaktualnienie13/08/2017 07:16:00
Pokaż/Ukryj pliki:
16 plików
NIKT JESZCZE NIE DODAŁ KOMENTARZA

DODAJ KOMENTARZ
Więcej Emoticon



Wstecz

Żaden z opisanych na stronie plików nie jest przetrzymywany na serwerze. Administrator strony immortaltorrent.pl nie może ponieść konsekwencji prawnych za to co użytkownicy zamieszczają lub piszą na stronie.
Nie możesz używać tego serwisu do rozpowszechniania lub ściągania materiałów do których nie masz odpowiednich praw lub licencji. Użytkownicy zobowiązani są do przestrzeganie tych zasad.
Rejestracja konta jest jednoznaczna z akceptacją zasad.

2017 © immortaltorrent.pl


Najlepsze strony Torrentowe