Torrentów: 146400      Ranga: Gosc               Stwórz konto Odzyskiwanie hasła


Kategorie
Filmy
 ⇒ DivX - XviD
 ⇒ RMVB
 ⇒ DVD-R
 ⇒ TV + Seriale
 ⇒ HDTV-HD
 ⇒ VCD - SVCD
 ⇒ x 264
 ⇒  3D
Gry
 ⇒ Gry PC
 ⇒ Gry Konsole
 ⇒ xbox360
Muzyka
 ⇒ Muzyka
 ⇒ Teledyski/Koncerty
Książki - Komiksy
 ⇒ E-Booki + Audio
 ⇒ Komiksy
Inne
 ⇒ XXX
 ⇒ Dla Dzieci
 ⇒ Sport
 ⇒ Pozostałe - Różne
 ⇒ Manga - Anime
 ⇒ GSM - PDA
Aplikacje
 ⇒ Windows
 ⇒ Linux + Macintosh



Detale torrenta

Najlepsi z najlepszych - Michel Vaillant (2003) [DVDRip]
Kondycja:
Dodane: 17/01/2009
Rozmiar: 700.48 MB
Uploader: Anonimowy
seed(ów): 26
leecher(ów): 11
Pobrane: 132





Ocena: N/A

produkcja:  Francja  
gatunek:   Akcja
data premiery: 2004-04-02 (Polska) , 2003-11-08 (¦wiat)
re¿yseria Louis-Pascal Couvelaire scenariusz Luc Besson , Gilles Malençon zdjêcia Michel Abramowicz
muzyka Danny Griffiths
czas trwania: 86

Któ¿ z nas nie chcia³by byæ Michelem Vaillant, kierowc±, któremu zawsze udaje siê pokonaæ rywali? Film opowiada o najbardziej pasjonuj±cych momentach z ¿ycia kierowcy rajdowego, jego niepokojach i tryumfach. "Michel Vaillant" to udane przeniesienie na ekran popularnego komiksu o tym samym tytule.

Actors:
Sagamore Stévenin , Peter Youngblood Hills , Diane Kruger , Jean-Pierre Cassel , Béatrice Agenin , Philippe Bas , Philippe Lellouche , Lisa Barbuscia

Video
Format                           : MPEG-4 Visual
Format profile                   : Streaming Video@L1
Format settings, BVOP            : Yes
Format settings, QPel            : No
Format settings, GMC             : No warppoints
Format settings, Matrix          : Default
Muxing mode                      : Packed bitstream
Codec ID                         : XVID
Codec ID/Hint                    : XviD
Duration                         : 1h 39mn
Bit rate                         : 849 Kbps
Width                            : 544 pixels
Height                           : 304 pixels
Display aspect ratio             : 16/9
Frame rate                       : 25.000 fps
Resolution                       : 24 bits
Colorimetry                      : 4:2:0
Scan type                        : Progressive
Bits/(Pixel*Frame)               : 0.205
Stream size                      : 603 MiB (86%)
Writing library                  : XviD 1.1.0 (UTC 2005-11-22)

Audio
Format                           : MPEG Audio
Format version                   : Version 1
Format profile                   : Layer 3
Codec ID                         : 55
Codec ID/Hint                    : MP3
Duration                         : 1h 39mn
Bit rate mode                    : Constant
Bit rate                         : 128 Kbps
Minimum bit rate                 : 128 Kbps
Channel(s)                       : 2 channels
Sampling rate                    : 48.0 KHz
Resolution                       : 16 bits
Stream size                      : 90.9 MiB (13%)
Alignment                        : Aligned on interleaves
Interleave, duration             : 40 ms (1.00 video frame)
Interleave, preload duration     : 504 ms
Writing library                  : LAME3.97b
Encoding settings                : CBR
Podobne torrenty
[DivX - XviD] Najlepsi z najlepszych - Michel Vaillant (2003) [DVDRip.XviD]
[DivX - XviD] Najlepsi z Najlepszych - Michel Vaillant *2003* [DVDRip] [Lektor PL]
[DivX - XviD] Michel Vaillant (2003) [DVDRip] [ang]
[DivX - XviD] Najlepsi z najlepszych - Best of the Best [1989] [DVDRip.XviD] [Eng]
[DivX - XviD] Najlepsi z najlepszych 2 -The Best of the Best 2 [1993] [DVDRip.XviD] [Eng]
[RMVB] Najlepsi z najlepszych II - Best of the Best II *1993* [DVDRip] [RMVB] [Lektor PL]
[DivX - XviD] Najlepsi z Najlepszych - Best Of The Best (1989-1999) [DVDRip.XviD] [Lektor PL]
[RMVB] Najlepsi z Najlepszych IV Bez ostrze¿enia - Best of the Best 4 Without Warning *1999* [DVDRip] [RMVB] [Lektor PL]
[DVD-R] Najlepsi z najlepszych 2 - Best Of The Best 2 *1993* [DVD5] [Lektor i Napisy PL]
[DVD-R] Najlepsi z najlepszych 3: Bez odwrotu - Best of the Best 3: No Turning Back * 1995* [DVD5] [Lektor i napisy PL]
Szczegóły torrenta
Trackerhttp://denis.stalker.h3q.com:80/announce
Kategoria:Filmy » DivX - XviD
Dodane17/01/2009 11:01:19
Ostatnie Uaktualnienie15/03/2013 15:15:36
NIKT JESZCZE NIE DODAŁ KOMENTARZA

DODAJ KOMENTARZ
Więcej Emoticon



Wstecz

Żaden z opisanych na stronie plików nie jest przetrzymywany na serwerze. Administrator strony immortaltorrent.pl nie może ponieść konsekwencji prawnych za to co użytkownicy zamieszczają lub piszą na stronie.
Nie możesz używać tego serwisu do rozpowszechniania lub ściągania materiałów do których nie masz odpowiednich praw lub licencji. Użytkownicy zobowiązani są do przestrzeganie tych zasad.
Rejestracja konta jest jednoznaczna z akceptacją zasad.

2018 © immortaltorrent.pl


Najlepsze strony Torrentowe