Torrentów: 137056      Ranga: Gość               Stwórz konto Odzyskiwanie hasła


Kategorie
Filmy
 ⇒ DivX - XviD
 ⇒ RMVB
 ⇒ DVD-R
 ⇒ TV + Seriale
 ⇒ HDTV-HD
 ⇒ VCD - SVCD
 ⇒ x 264
 ⇒  3D
Gry
 ⇒ Gry PC
 ⇒ Gry Konsole
 ⇒ xbox360
Muzyka
 ⇒ Muzyka
 ⇒ Teledyski/Koncerty
Książki - Komiksy
 ⇒ E-Booki + Audio
 ⇒ Komiksy
Inne
 ⇒ XXX
 ⇒ Dla Dzieci
 ⇒ Sport
 ⇒ Pozostałe - Różne
 ⇒ Manga - Anime
 ⇒ GSM - PDA
Aplikacje
 ⇒ Windows
 ⇒ Linux + Macintosh



Detale torrenta

Tropiciele mogił - Grave Encounters 2011 [480p][BRRip.XviD.AC3] [Lektor PL]
Kondycja:
Dodane: 17/02/2015
Rozmiar: 1.41 GB
Uploader: Anonimowy

seed(ów): 0
leecher(ów): 0
Pobrane: 0





Ocena: N/A

INFO
Tropiciele mogił(2011)


1 godz. 32 min.
Ekipa telewizyjna zostaje uwięziona w nawiedzonym szpitalu psychiatrycznym.

reżyseria: The Vicious Brothers
scenariusz: The Vicious Brothers
gatunek: Horror
produkcja: Kanada
premiera: 22 kwietnia 2011 (świat)
1 godz. 32 min.

http://www.filmweb.pl/film/Tropiciele+mogił-2011-610178

Opis:-


Lance Preston i jego ekipa łowców duchów "Grave Encounters" - telewizyjnego reality show, postanawiają, nakręcić jeden z odcinków w opuszczonym szpitalu psychiatrycznym w Collingwood, gdzie na przestrzeni lat, dochodzi do niewyjaśnionych zjawisk. W dobrym imieniu telewizji, postanawiają zamknąć się w tym miejscu na jedną noc, licząc na zbadanie wszelkich zjawisk paranormalnych i możliwość nagrania ich na kamerze. Szybko zauważają, że budynek jest więcej niż nawiedzony, jest żywy i nie zamierza kogokolwiek wypuścić.

Obsada:-

Sean Rogerson Lance Preston
Juan Riedinger Matt White
Ashleigh Gryzko Sasha Parke
Mackenzie Gray Houston Gray
Merwin Mondesir T.C Gibson

Dane Tech:-

Tropiciele mogił - Grave Encounters 2011 [480p][BRRip.XviD.AC3] [Lektor PL]Grave.Encounters.2011.PL.480p.BRRip.XviD.AC3.avi
Format                                   : AVI
Format/Info                              : Audio Video Interleave
File size                                : 1.41 GiB
Duration                                 : 1h 33mn
Overall bit rate                         : 2 160 Kbps
Writing application                      : VirtualDubMod 1.5.10.3 | www.virtualdub-fr.org || (build 2550/release)
Writing library                          : VirtualDubMod build 2550/release

Video
ID                                       : 0
Format                                   : MPEG-4 Visual
Format profile                           : Advanced Simple@L5
Format settings, BVOP                    : 2
Format settings, QPel                    : No
Format settings, GMC                     : No warppoints
Format settings, Matrix                  : Default (H.263)
Muxing mode                              : Packed bitstream
Codec ID                                 : XVID
Codec ID/Hint                            : XviD
Duration                                 : 1h 33mn
Bit rate                                 : 1 895 Kbps
Width                                    : 720 pixels
Height                                   : 400 pixels
Display aspect ratio                     : 16:9
Original display aspect ratio            : 16:9
Frame rate                               : 24.000 fps
Color space                              : YUV
Chroma subsampling                       : 4:2:0
Bit depth                                : 8 bits
Scan type                                : Progressive
Compression mode                         : Lossy
Bits/(Pixel*Frame)                       : 0.274
Stream size                              : 1.24 GiB (88%)
Writing library                          : XviD 64

Audio
ID                                       : 1
Format                                   : AC-3
Format/Info                              : Audio Coding 3
Mode extension                           : CM (complete main)
Format settings, Endianness              : Big
Codec ID                                 : 2000
Duration                                 : 1h 33mn
Bit rate mode                            : Constant
Bit rate                                 : 256 Kbps
Channel(s)                               : 2 channels
Channel positions                        : Front: L R
Sampling rate                            : 48.0 KHz
Bit depth                                : 16 bits
Compression mode                         : Lossy
Stream size                              : 171 MiB (12%)
Alignment                                : Split accross interleaves
Interleave, duration                     : 42 ms (1.00 video frame)
Interleave, preload duration             : 500 ms
Podobne torrenty
[DivX - XviD] Tropiciele Mogił 2 - Grave Encounters 2 2012 [BRRiP.XViD] [Lektor PL]
[DivX - XviD] Grave Encounters 2 *2012* [WEBRip,XviD] [Napisy PL]
[DivX - XviD] Bez Litości - I Spit On Your Grave *2010* [480p] [BRRip] [XviD] [AC3] [Lektor PL]
[DivX - XviD] Bez litości - I Spit on Your Grave (2010) [480p] [BRRip] [XviD] [AC-3] [Lektor PL] [H1]
[DivX - XviD] Bez litości 3 - I Spit on Your Grave 3 (2015) [480p] [BRRip] [XviD] [AC-3] [Lektor PL] [H1]
[DivX - XviD] Bez litości 2 - I Spit on Your Grave 2 *2013* [UNRATED] [480p] [BRRip.XviD] [AC3] [5:1] [Napisy PL]
[DivX - XviD] Jak Ona To Robi? - I Don\'t Know How She Does It *2011* [480p] [BRRip] [XviD] [AC3] [Lektor PL]
[DivX - XviD] Super 8 (2011) [480p] [BRRip] [XviD-LTS] [Lektor PL]
[DivX - XviD] Intruzi - Intruders *2011* [480p] [BRRip] [XviD] [AC3] [Lektor PL]
[DivX - XviD] Przeniesienie - Ghosted *2011* [480p] [BRRip.XviD-sav] [AC3] [Lektor PL]
Szczegóły torrenta
Trackerhttp://94.228.192.98/announce
Multitracker http://94.228.192.98/announce
http://tracker.torrenty.org:6969/announce
http://94.228.192.98/announce
http://www.tlv.cc:7777/announce
http://announce.torrentsmd.com:6969/announce
http://tracker.leechers-paradise.org:6969/announce
udp://tracker.openbittorrent.com:80/announce
udp://tracker.publicbt.com:80/announce
udp://9.rarbg.com:2710/announce
udp://coppersurfer.tk:6969/announce
udp://tracker.istole.it:80/announce
udp://bt.rghost.net:80/announce
udp://exodus.desync.com:6969/announce
udp://tracker.prq.to/announce
udp://tracker.token.ro:80/announce
udp://tracker.zond.org:80/announce
udp://ipv4.tracker.harry.lu:80/announce
http://tracker.nwps.ws:6969/announce
http://94.228.192.98/announce
http://tracker.nwps.ws:6969/announce
http://www.tlv.cc:7777/announce
http://announce.torrentsmd.com:6969/announce
udp://open.demonii.com:1337/announce
http://tracker.leechers-paradise.org:6969/announce
http://tracker.torrenty.org:6969/announce
udp://open.demonii.com:1337
udp://tracker.openbittorrent.com:80/announce
udp://tracker.publicbt.com:80/announce
udp://9.rarbg.com:2710/announce
udp://coppersurfer.tk:6969/announce
http://www.tlv.cc:7777/announce
http://announce.torrentsmd.com:6969/announce
udp://open.demonii.com:1337/announce
http://tracker.leechers-paradise.org:6969/announce
http://tracker.torrenty.org:6969/announce
udp://open.demonii.com:1337
udp://tracker.openbittorrent.com:80/announce
udp://tracker.publicbt.com:80/announce
udp://9.rarbg.com:2710/announce
udp://coppersurfer.tk:6969/announce

Kategoria:Filmy » DivX - XviD
Dodane17/02/2015 13:02:36
Ostatnie Uaktualnienie17/10/2017 05:48:33
Pokaż/Ukryj pliki:
5 plików
NIKT JESZCZE NIE DODAŁ KOMENTARZA

DODAJ KOMENTARZ
Więcej Emoticon



Wstecz

Żaden z opisanych na stronie plików nie jest przetrzymywany na serwerze. Administrator strony immortaltorrent.pl nie może ponieść konsekwencji prawnych za to co użytkownicy zamieszczają lub piszą na stronie.
Nie możesz używać tego serwisu do rozpowszechniania lub ściągania materiałów do których nie masz odpowiednich praw lub licencji. Użytkownicy zobowiązani są do przestrzeganie tych zasad.
Rejestracja konta jest jednoznaczna z akceptacją zasad.

2017 © immortaltorrent.pl


Najlepsze strony Torrentowe