Torrentów: 134355      Ranga: Gość               Stwórz konto Odzyskiwanie hasła


Kategorie
Filmy
 ⇒ DivX - XviD
 ⇒ RMVB
 ⇒ DVD-R
 ⇒ TV + Seriale
 ⇒ HDTV-HD
 ⇒ VCD - SVCD
 ⇒ x 264
 ⇒  3D
Gry
 ⇒ Gry PC
 ⇒ Gry Konsole
 ⇒ xbox360
Muzyka
 ⇒ Muzyka
 ⇒ Teledyski/Koncerty
Książki - Komiksy
 ⇒ E-Booki + Audio
 ⇒ Komiksy
Inne
 ⇒ XXX
 ⇒ Dla Dzieci
 ⇒ Sport
 ⇒ Pozostałe - Różne
 ⇒ Manga - Anime
 ⇒ GSM - PDA
Aplikacje
 ⇒ Windows
 ⇒ Linux + Macintosh



Detale torrenta

Huragan ognia - Rapid Fire (1992) [DVDRip] [Xvid-torentup] [Lektor PL]
Kondycja:
Dodane: 28/10/2015
Rozmiar: 699.90 MB
Uploader: torentup

seed(ów): 9
leecher(ów): 7
Pobrane: 11





Ocena: N/A

=====================
INFO
================

Gatunek: Karate
Produkcja: USA
Premiera: 21 sierpnia 1992 (świat)
Czas trwania: 1 godz. 31 min.
Reżyseria: Dwight H. Little
Scenariusz: Alan B. McElroy


=====================
OPIS
====================

Student Jake Lo (Brandon Lee - "Kruk") zostaje zaproszony na ekskluzywne przyjęcie, z którego dochód ma być przeznaczony na walke z komuną w Chinach. Impreza odbywa się u właścieciela luksusowej galerii. Ów biznesmen jest członkiem mafii i pracuje dla Kinmana Tau, przywódcy kartelu narkotykowego. Na oczach Jake organizator przyjęcia zostaje zamordowany przez gangstera Antonio Serrano. Ściagany przez handlarzy narkotyków i agentów federalnych musi znależć drogę ucieczki i sposób na przeżycie...

=====================
OBSADA
====================

Brandon Lee.............. - Jake Lo
Powers Boothe............ - Mace Ryan
Nick Mancuso............. - Antonio Serrano
Raymond J. Barry......... - Agent Frank Stewart
Kate Hodge............... - Karla Withers
Tzi Ma................... -
Michael Paul Chan........ -
Tony Longo............... -

=====================
DANE TECHNICZNE
=====================

Format                         : AVI
Format/Info                    : Audio Video Interleave
File size                      : 700 MiB
Duration                       : 1h 31mn
Overall bit rate               : 1 072 Kbps
Writing application            : VirtualDubMod 1.5.10.2 (build 2540/release)
Writing library                : VirtualDubMod build 2540/release

Video
ID                             : 0
Format                         : MPEG-4 Visual
Format profile                 : Advanced Simple@L5
Format settings, BVOP          : Yes
Format settings, QPel          : No
Format settings, GMC           : No warppoints
Format settings, Matrix        : Default (H.263)
Codec ID                       : XVID
Codec ID/Hint                  : XviD
Duration                       : 1h 31mn
Bit rate                       : 935 Kbps
Width                          : 640 pixels
Height                         : 336 pixels
Display aspect ratio           : 1.905
Frame rate                     : 25.000 fps
Color space                    : YUV
Chroma subsampling             : 4:2:0
Bit depth                      : 8 bits
Scan type                      : Progressive
Compression mode               : Lossy
Bits/(Pixel*Frame)             : 0.174
Stream size                    : 610 MiB (87%)
Writing library                : XviD 1.1.0 (UTC 2005-11-22)

Audio
ID                             : 1
Format                         : MPEG Audio
Format version                 : Version 1
Format profile                 : Layer 3
Mode                           : Joint stereo
Mode extension                 : MS Stereo
Codec ID                       : 55
Codec ID/Hint                  : MP3
Duration                       : 1h 31mn
Bit rate mode                  : Constant
Bit rate                       : 128 Kbps
Channel(s)                     : 2 channels
Sampling rate                  : 48.0 KHz
Compression mode               : Lossy
Delay relative to video        : 1s 368ms
Stream size                    : 83.5 MiB (12%)
Alignment                      : Split accross interleaves
Interleave, duration           : 40 ms (1.00 video frame)
Interleave, preload duration   : 504 ms


Podobne torrenty
[DivX - XviD] Huragan Ognia - Rapid Fire *1992* [DVDRip.XviD] [Napisy PL]
[DVD-R] Huragan Ognia - Rapid Fire *1992* [PAL.DVD5] [Napisy PL]
[DivX - XviD] W morzu ognia - Fire Down Below *1997* [DVDRip.XviD][AC3] [Lektor PL]
[DivX - XviD] W krainie ognia i lodu - Fire & Ice *2008* [DVDRip.XviD] [Lektor PL]
[RMVB] Próba Ognia - Trial By Fire *2008* [DVDRip.RMVB] [Lektor PL]
[RMVB] Władcy ognia - Reign of Fire *2002* [DVDRip.RMVB] [Lektor PL]
[RMVB] Próba Ognia - Trial By Fire *2008* [DVDRip.RMVB] [Lektor PL]
[DivX - XviD] Jarhead 2:W polu ognia - Jarhead 2:Field of Fire (2014) [DVDRip] [XviD-NN] [Lektor PL]
[DivX - XviD] Na lini ognia - In the Line of Fire *1993* [BDRip] [XviD-Shadow] [Lektor PL]
[DivX - XviD] Władcy ognia - Reign Of Fire *2002* [DVDRip.XViD]
Szczegóły torrenta
Trackerhttp://tracker.filetracker.pl:8089/announce
Multitracker http://tracker.filetracker.pl:8089/announce
http://tracker.free-torrents.pl/announce
http://tracker.streettorrent.pl:80/announce
http://tracker.torrenty.org:6969/announce
http://tracker.aletorrenty.pl:2710/announce
http://tracker.pubt.net:2710/announce
http://94.228.192.98/announce
http://www.tlv.cc:7777/announce
http://tracker.torrenty.org:6969/announce
http://retracker.omsk.ru:2710/announce
http://tracker.immortaltorrent.pl/announce
udp://open.demonii.com:1337/announce
http://tracker.best-torrents.net:6969/announce
udp://torrent.gresille.org:80/announce
udp://9.rarbg.me:2710/announce
udp://eddie4.nl:6969/announce
udp://tracker.leechers-paradise.org:6969/announce
udp://tracker4.piratux.com:6969/announce
udp://www.eddie4.nl:6969/announce
udp://open.demonii.com:1337/announce
udp://tracker.openbittorrent.com:80/announce
udp://tracker.publicbt.com:80/announce
udp://ipv4.tracker.harry.lu:80/announce
udp://tracker.publicbt.com/announce
udp://shadowshq.eddie4.nl:6969/announce
udp://9.rarbg.com:2710/announce
udp://11.rarbg.com:80/announce
udp://10.rarbg.com/announce
udp://tracker.istole.it:80/announce
udp://exodus.desync.com:6969
udp://open.demonii.com:1337/announce
udp://tracker.prq.to/announce

Kategoria:Filmy » DivX - XviD
Dodane28/10/2015 12:10:41
Ostatnie Uaktualnienie28/10/2015 21:18:27
Pokaż/Ukryj pliki:
5 plików
NIKT JESZCZE NIE DODAŁ KOMENTARZA

DODAJ KOMENTARZ
Więcej Emoticon



Wstecz

Żaden z opisanych na stronie plików nie jest przetrzymywany na serwerze. Administrator strony immortaltorrent.pl nie może ponieść konsekwencji prawnych za to co użytkownicy zamieszczają lub piszą na stronie.
Nie możesz używać tego serwisu do rozpowszechniania lub ściągania materiałów do których nie masz odpowiednich praw lub licencji. Użytkownicy zobowiązani są do przestrzeganie tych zasad.
Rejestracja konta jest jednoznaczna z akceptacją zasad.

2017 © immortaltorrent.pl


Najlepsze strony Torrentowe