Torrentów: 146373      Ranga: Gosc               Stwórz konto Odzyskiwanie hasła


Kategorie
Filmy
 ⇒ DivX - XviD
 ⇒ RMVB
 ⇒ DVD-R
 ⇒ TV + Seriale
 ⇒ HDTV-HD
 ⇒ VCD - SVCD
 ⇒ x 264
 ⇒  3D
Gry
 ⇒ Gry PC
 ⇒ Gry Konsole
 ⇒ xbox360
Muzyka
 ⇒ Muzyka
 ⇒ Teledyski/Koncerty
Książki - Komiksy
 ⇒ E-Booki + Audio
 ⇒ Komiksy
Inne
 ⇒ XXX
 ⇒ Dla Dzieci
 ⇒ Sport
 ⇒ Pozostałe - Różne
 ⇒ Manga - Anime
 ⇒ GSM - PDA
Aplikacje
 ⇒ Windows
 ⇒ Linux + Macintosh



Detale torrenta

Marc Dorcel - Perversions En Heritage
Kondycja:
Dodane: 18/01/2009
Rozmiar: 700.33 MB
Uploader: Anonimowy
seed(ów): 9
leecher(ów): 8
Pobrane: 54





Ocena:


Video
Format                           : MPEG-4 Visual
Codec ID                         : DIV3
Codec ID/Hint                    : DivX 3 Low
Duration                         : 1h 22mn
Bit rate                         : 1 050 Kbps
Width                            : 512 pixels
Height                           : 384 pixels
Display aspect ratio             : 4/3
Frame rate                       : 25.000 fps
Resolution                       : 24 bits
Bits/(Pixel*Frame)               : 0.214
Stream size                      : 617 MiB (88%)

Audio
Format                           : MPEG Audio
Format version                   : Version 1
Format profile                   : Layer 3
Codec ID                         : 55
Codec ID/Hint                    : MP3
Duration                         : 1h 22mn
Bit rate mode                    : Constant
Bit rate                         : 128 Kbps
Channel(s)                       : 2 channels
Sampling rate                    : 48.0 KHz
Resolution                       : 16 bits
Stream size                      : 75.3 MiB (11%)
Alignment                        : Aligned on interleaves
Interleave, duration             : 24 ms (0.60 video frame)
Interleave, preload duration     : 480 ms
Podobne torrenty
[XXX] Marc Dorcel - The Inheritance (L\'Heritage De Laure)[1996]
[XXX] Marc Dorcel
[XXX] Marc Dorcel
[XXX] Marc Dorcel - Pornopoker
[XXX] Marc Dorcel - Elixir
[XXX] Marc Dorcel - Brulante
[XXX] Marc Dorcel - Sex Game
[XXX] Marc Dorcel - Chaudes
[XXX] Marc Dorcel - La Soubrette
[XXX] Marc Dorcel - The Governess
Szczegóły torrenta
Trackerhttp://denis.stalker.h3q.com:80/announce
Kategoria:Inne » XXX
Dodane18/01/2009 10:01:52
Ostatnie Uaktualnienie26/12/2012 01:02:00
NIKT JESZCZE NIE DODAŁ KOMENTARZA

DODAJ KOMENTARZ
Więcej Emoticon



Wstecz

Żaden z opisanych na stronie plików nie jest przetrzymywany na serwerze. Administrator strony immortaltorrent.pl nie może ponieść konsekwencji prawnych za to co użytkownicy zamieszczają lub piszą na stronie.
Nie możesz używać tego serwisu do rozpowszechniania lub ściągania materiałów do których nie masz odpowiednich praw lub licencji. Użytkownicy zobowiązani są do przestrzeganie tych zasad.
Rejestracja konta jest jednoznaczna z akceptacją zasad.

2018 © immortaltorrent.pl


Najlepsze strony Torrentowe