Torrentów: 137961      Ranga: Gość               Stwórz konto Odzyskiwanie hasła


Kategorie
Filmy
 ⇒ DivX - XviD
 ⇒ RMVB
 ⇒ DVD-R
 ⇒ TV + Seriale
 ⇒ HDTV-HD
 ⇒ VCD - SVCD
 ⇒ x 264
 ⇒  3D
Gry
 ⇒ Gry PC
 ⇒ Gry Konsole
 ⇒ xbox360
Muzyka
 ⇒ Muzyka
 ⇒ Teledyski/Koncerty
Książki - Komiksy
 ⇒ E-Booki + Audio
 ⇒ Komiksy
Inne
 ⇒ XXX
 ⇒ Dla Dzieci
 ⇒ Sport
 ⇒ Pozostałe - Różne
 ⇒ Manga - Anime
 ⇒ GSM - PDA
Aplikacje
 ⇒ Windows
 ⇒ Linux + Macintosh



Detale torrenta

Tygrysy Kolei-Railroad Tigers (2016)[BRRip 1080p x264 by alE13 AC3/DTS][Napisy PL/Eng][Chi]
Kondycja:
Dodane: 21/06/2017
Rozmiar: 11.02 GB
Uploader: alE13

seed(ów): 1
leecher(ów): 0
Pobrane: 0





Ocena: N/A



http://www.imdb.com/title/tt4687848/
http://www.filmweb.pl/film/Tie+Dao+Fei+Hu-2016-747508

Audio DTS w osobnym pliku.
Plik zawiera Sample.


reżyseria: Sheng Ding
gatunek: Komedia,Akcja
produkcja: Chiny
premiera: 23-12-2016
muzyka:         Zai Lao
zdjęcia:        Yu Ding
czas:           02:04:15

opis:

A railroad worker in China in 1941 leads a team of freedom fighters against the Japanese
in order to get food for the poor.

Akcja "Railroad Tigers" osadzona jest w Chinach w 1941 roku i skupia się na zwyczajnym pracowniku kolei.
Dowodzi on ekipą bojowników, którzy wykorzystują swoją wiedzę o kolei, aby przeszkodzić w transporcie
japońskim okupantom i kraść jedzenie dla głodujących mieszkańców.

http://i.imgur.com/KsNfDtz.jpg
http://i.imgur.com/6oCG4yk.jpg
http://i.imgur.com/oabaZUO.jpg
http://i.imgur.com/XMyz7lJ.jpg

obsada:

Jackie Chan, Jaycee Chan, Zitao Huang

dane techniczne:

Audio:

Plik: Railroad Tigers (2016)-alE13_DTS.mka

Hash: 4B26D6EF0ACA52CD
Format: Matroska
Czas: 02:04:15.755
Rozmiar: 3.28 GiB (3523275523)

Audio (0):
Kodek:         (DTS-HD) DTS-HD
Format:       DTS
Kanały:       6 channels
BitRate:       3 840 kb/s / 1 509 kb/s
Tytuł:         Original
Język:       Chinese

Napisy (0):
Kodek:         (S_TEXT/UTF8) UTF-8
Format:       UTF-8
Język:       English (Full)

Railroad Tigers (2016)-alE13.mkv
Format                      : Matroska
Format version              : Version 4 / Version 2
File size                   : 7.69 GiB
Duration                    : 2 h 4 min
Overall bit rate            : 8 860 kb/s
Movie name                  : Railroad Tigers (2016)-alE13
Encoded date                : UTC 2017-06-20 16:56:06
Writing application         : mkvmerge v8.1.0 ('Psychedelic Postcard') 64bit
Writing library             : libebml v1.3.1 + libmatroska v1.4.2
Cover                       : Yes
Attachments                 : Cover.jpg

Video
ID                          : 1
Format                      : AVC
Format/Info                 : Advanced Video Codec
Format profile              : High@L4.1
Format settings, CABAC      : Yes
Format settings, ReFrames   : 2 frames
Codec ID                    : V_MPEG4/ISO/AVC
Duration                    : 2 h 4 min
Bit rate                    : 8 332 kb/s
Width                       : 1 920 pixels
Height                      : 800 pixels
Display aspect ratio        : 2.40:1
Frame rate mode             : Constant
Frame rate                  : 24.000 FPS
Color space                 : YUV
Chroma subsampling          : 4:2:0
Bit depth                   : 8 bits
Scan type                   : Progressive
Bits/(Pixel*Frame)          : 0.226
Stream size                 : 7.13 GiB (93%)
Title                       : Railroad Tigers (2016)-alE13
Writing library             : x264 core 142
Default                     : Yes
Forced                      : No
Color range                 : Limited
Color primaries             : BT.709
Transfer characteristics    : BT.709
Matrix coefficients         : BT.709

Audio
ID                          : 2
Format                      : AC-3
Format/Info                 : Audio Coding 3
Mode extension              : CM (complete main)
Format settings, Endianness : Big
Codec ID                    : A_AC3
Duration                    : 2 h 4 min
Bit rate mode               : Constant
Bit rate                    : 640 kb/s
Channel(s)                  : 6 channels
Channel positions           : Front: L C R, Side: L R, LFE
Sampling rate               : 48.0 kHz
Frame rate                  : 31.250 FPS (1536 spf)
Compression mode            : Lossy
Stream size                 : 569 MiB (7%)
Title                       : Railroad Tigers (2016)-alE13_AC3
Language                    : Chinese
Default                     : No
Forced                      : No

Text #1
ID                          : 3
Format                      : UTF-8
Codec ID                    : S_TEXT/UTF8
Codec ID/Info               : UTF-8 Plain Text
Duration                    : 2 h 2 min
Bit rate                    : 30 b/s
Count of elements           : 966
Stream size                 : 27.0 KiB (0%)
Title                       : Railroad Tigers (2016)-alE13_SRT
Language                    : Polish
Default                     : Yes
Forced                      : No

Text #2
ID                          : 4
Format                      : UTF-8
Codec ID                    : S_TEXT/UTF8
Codec ID/Info               : UTF-8 Plain Text
Duration                    : 2 h 2 min
Bit rate                    : 34 b/s
Count of elements           : 1255
Stream size                 : 30.8 KiB (0%)
Title                       : Railroad Tigers (2016)-alE13_SRT
Language                    : English
Default                     : No
Forced                      : No

Menu
00:00:00.000                : en:00:00:00.000
00:11:37.083                : en:00:11:37.083
00:20:22.791                : en:00:20:22.792
00:31:07.167                : en:00:31:07.167
00:41:32.583                : en:00:41:32.583
00:54:51.583                : en:00:54:51.583
01:02:03.917                : en:01:02:03.917
01:14:17.457                : en:01:14:17.458
01:23:37.167                : en:01:23:37.167
01:31:45.125                : en:01:31:45.125
01:42:10.083                : en:01:42:10.083
01:51:37.042                : en:01:51:37.042
Podobne torrenty
[DivX - XviD] Railroad Tigers - Tie Dao Fei Hu *2016* [720p] [BDRip] [AC3] [XviD-KRT] [Napisy PL] [zibi6248]
[HDTV-HD] Ben-Hur(2016)[BRRip 1080p x264 by alE13 AC3/DTS]Napisy PL/England][Eng]
[HDTV-HD] Daylight\'s End (2016)[BRRip 1080p x264 by alE13 AC3][Napisy PL][Eng]
[ 3D] Przesłuchanie-Interrogation 3D (2016)[BRRip 1080p x264 by alE13 AC3/DTS][Napisy PL/Eng][Eng]
[HDTV-HD] Goście, goście III: Rewolucja-Les Visiteurs-La Revolution (2016)[BRRip 1080p x264 by alE13 AC3/DTS][Napisy PL/Eng/Fre][Fre]
[HDTV-HD] Siedmiu wspaniałych-The Magnificent Seven (2016)[BRRip 1080p x264 by alE13 AC3/DTS][Napisy PL/Eng][Eng]
[HDTV-HD] Miasto Grzechu-City of Sin (2016)[BRRip 1080p x264 by alE13 AC3/DTS][Napisy PL][Eng]
[HDTV-HD] Odstrzał-Free Fire (2016)[BRRip 1080p x264 by alE13 AC3/DTS][Napisy PL][Eng]
[HDTV-HD] Firma Strach-Fear, Inc. (2016)[BRRip 1080p x264 by alE13 AC3/DTS][Napisy PL/Eng][Eng]
[ 3D] Wielki Mur-The Great Wall 3D (2016)[BRRip 1080p x264 by alE13 AC3/DTS][Lektor i Napisy PL/Eng][Eng]
Szczegóły torrenta
Trackerhttp://tracker.devil-torrents.pl/announce
Multitracker http://tracker.devil-torrents.pl/announce
http://tracker.torrentyorg.pl/announce
udp://tracker.opentrackr.org:1337/announce
udp://tracker.leechers-paradise.org:6969/announce
udp://tracker.ilibr.org:80/announce
udp://tracker.coppersurfer.tk:6969/announce
udp://p4p.arenabg.ch:1337/announce
udp://inferno.demonoid.pw:3391/announce

Kategoria:Filmy » HDTV-HD
Dodane21/06/2017 06:06:42
Ostatnie Uaktualnienie21/06/2017 06:25:42
Pokaż/Ukryj pliki:
17 plików
NIKT JESZCZE NIE DODAŁ KOMENTARZA

DODAJ KOMENTARZ
Więcej Emoticon



Wstecz

Żaden z opisanych na stronie plików nie jest przetrzymywany na serwerze. Administrator strony immortaltorrent.pl nie może ponieść konsekwencji prawnych za to co użytkownicy zamieszczają lub piszą na stronie.
Nie możesz używać tego serwisu do rozpowszechniania lub ściągania materiałów do których nie masz odpowiednich praw lub licencji. Użytkownicy zobowiązani są do przestrzeganie tych zasad.
Rejestracja konta jest jednoznaczna z akceptacją zasad.

2017 © immortaltorrent.pl


Najlepsze strony Torrentowe