Torrentów: 137155      Ranga: Gość               Stwórz konto Odzyskiwanie hasła


Kategorie
Filmy
 ⇒ DivX - XviD
 ⇒ RMVB
 ⇒ DVD-R
 ⇒ TV + Seriale
 ⇒ HDTV-HD
 ⇒ VCD - SVCD
 ⇒ x 264
 ⇒  3D
Gry
 ⇒ Gry PC
 ⇒ Gry Konsole
 ⇒ xbox360
Muzyka
 ⇒ Muzyka
 ⇒ Teledyski/Koncerty
Książki - Komiksy
 ⇒ E-Booki + Audio
 ⇒ Komiksy
Inne
 ⇒ XXX
 ⇒ Dla Dzieci
 ⇒ Sport
 ⇒ Pozostałe - Różne
 ⇒ Manga - Anime
 ⇒ GSM - PDA
Aplikacje
 ⇒ Windows
 ⇒ Linux + Macintosh



Detale torrenta

The Hike (2011)[BRRip 1080p x264 by alE13 AC3/DTS][Napisy PL/Ger][Eng]
Kondycja:
Dodane: 16/12/2016
Rozmiar: 7.91 GB
Uploader: alE13

seed(ów): 1
leecher(ów): 16
Pobrane: 0





Ocena: N/A



http://www.imdb.com/title/tt1572194/
http://www.filmweb.pl/film/The+Hike-2011-561578

Film tylko dla dorosłych!!!
Movie for adults !!!


reżyseria: Rupert Bryan
scenariusz: Rupert Bryan,Ben Loyd-Holmes
gatunek: Horror
produkcja: Wielka Brytania
premiera: 30-05-2011
zdjęcia:        James Friend
czas:           1h 23mn

opis:

This film is about a group of women who go on a camping trip in British countryside after
one of them (Kate) gets back from doing a tour in Afghanistan where she witnessed her boyfriends
death. While out in the bush area they come across a group of guys who are also camping out.
But it all goes from having a good time and enjoying themselves to a fight for their lives as they
are soon being hunted by someone in the forest. Who will survive?

By zapomnieć o dramatycznym wydarzeniu z przeszłości, Kate (Zara Phythian) udaje się z przyjaciółkami
na wyprawę w głąb lasu. Poszukując idealnego miejsca na obóz docierają do Sunset Point, gdzie spotykają
alpinistów prowadzonych przez Ethana (Ben Loyd Holmes). Obie grupy szybko się zaprzyjaźniają. Po zapadnięciu
zmroku jedna z dziewczyn znika, pozostali by wydostać się cało z lasu muszą ze sobą współpracować.

obsada:

Jemma Bolt, Stephanie Siadatan, Lisa-Marie Long

dane techniczne:

The Hike (2011)-alE13.mkv
Format                      : Matroska
Format version              : Version 4 / Version 2
File size                   : 7.85 GiB
Duration                    : 1 h 23 min
Overall bit rate            : 13.5 Mb/s
Movie name                  : The Hike (2011)-alE13
Encoded date                : UTC 2016-12-16 15:16:29
Writing application         : mkvmerge v8.1.0 ('Psychedelic Postcard') 64bit
Writing library             : libebml v1.3.1 + libmatroska v1.4.2
Cover                       : Yes
Attachments                 : cover.jpg

Video
ID                          : 1
Format                      : AVC
Format/Info                 : Advanced Video Codec
Format profile              : High@L4.1
Format settings, CABAC      : Yes
Format settings, ReFrames   : 2 frames
Codec ID                    : V_MPEG4/ISO/AVC
Duration                    : 1 h 23 min
Bit rate                    : 11.5 Mb/s
Width                       : 1 920 pixels
Height                      : 816 pixels
Display aspect ratio        : 2.35:1
Frame rate mode             : Constant
Frame rate                  : 25.000 FPS
Color space                 : YUV
Chroma subsampling          : 4:2:0
Bit depth                   : 8 bits
Scan type                   : Progressive
Bits/(Pixel*Frame)          : 0.294
Stream size                 : 6.71 GiB (85%)
Title                       : The Hike (2011)-alE13
Writing library             : x264 core 142
Default                     : Yes
Forced                      : No
Color range                 : Limited
Color primaries             : BT.709
Transfer characteristics    : BT.709
Matrix coefficients         : BT.709

Audio #1
ID                          : 2
Format                      : AC-3
Format/Info                 : Audio Coding 3
Mode extension              : CM (complete main)
Format settings, Endianness : Big
Codec ID                    : A_AC3
Duration                    : 1 h 23 min
Bit rate mode               : Constant
Bit rate                    : 448 kb/s
Channel(s)                  : 6 channels
Channel positions           : Front: L C R, Side: L R, LFE
Sampling rate               : 48.0 kHz
Frame rate                  : 31.250 FPS (1536 spf)
Bit depth                   : 16 bits
Compression mode            : Lossy
Stream size                 : 267 MiB (3%)
Title                       : The Hike (2011)-alE13_AC3
Language                    : English
Default                     : No
Forced                      : No

Audio #2
ID                          : 5
Format                      : DTS
Format/Info                 : Digital Theater Systems
Mode                        : 16
Format settings, Endianness : Big
Codec ID                    : A_DTS
Duration                    : 1 h 23 min
Bit rate mode               : Constant
Bit rate                    : 1 509 kb/s
Channel(s)                  : 6 channels
Channel positions           : Front: L C R, Side: L R, LFE
Sampling rate               : 48.0 kHz
Frame rate                  : 93.750 FPS (512 spf)
Bit depth                   : 24 bits
Compression mode            : Lossy
Stream size                 : 900 MiB (11%)
Title                       : The Hike (2011)-alE13_DTS @ 1510 Kbps 6ch
Language                    : English
Default                     : No
Forced                      : No

Text #1
ID                          : 3
Format                      : UTF-8
Codec ID                    : S_TEXT/UTF8
Codec ID/Info               : UTF-8 Plain Text
Duration                    : 1 h 19 min
Bit rate                    : 87 b/s
Count of elements           : 675
Stream size                 : 51.1 KiB (0%)
Title                       : The Hike (2011)-alE13_srt_color
Language                    : Polish
Default                     : Yes
Forced                      : No

Text #2
ID                          : 4
Format                      : UTF-8
Codec ID                    : S_TEXT/UTF8
Codec ID/Info               : UTF-8 Plain Text
Duration                    : 1 h 19 min
Bit rate                    : 54 b/s
Count of elements           : 712
Stream size                 : 31.8 KiB (0%)
Title                       : The Hike (2011)-alE13
Language                    : German
Default                     : No
Forced                      : No

Menu
00:00:00.000                : en:Chapter 01
00:05:55.200                : en:Chapter 02
00:12:58.120                : en:Chapter 03
00:21:34.000                : en:Chapter 04
00:28:37.680                : en:Chapter 05
00:35:36.680                : en:Chapter 06
00:43:44.080                : en:Chapter 07
00:50:08.440                : en:Chapter 08
00:57:14.680                : en:Chapter 09
01:03:07.920                : en:Chapter 10
01:07:35.200                : en:Chapter 11
01:12:22.680                : en:Chapter 12
01:20:00.040                : en:Chapter 13
Podobne torrenty
[HDTV-HD] Alyce (2011)[BRRip 1080p x264 by alE13 AC3/DTS][Lektor i Napisy Eng/Ger][Eng]
[HDTV-HD] Q: Zagadka Kobiety - Q (2011)[BRRip 1080p x264 by alE13 AC3][Napisy PL/Eng][Fre]
[HDTV-HD] Wyścig z czasem-In Time (2011)[BRRip 1080p x264 by alE13 AC3][Lektor i Napisy PL/Eng][Eng]
[ 3D] Historia świata w 2 godziny-History Of The World In Two Hours 3D (2011)[BRRip 1080p x264 by alE13 AC3][Napisy PL][Eng]
[HDTV-HD] Szybcy i wściekli 8-The Fate of the Furious (2017)-alE13[BRRip 1080p x264 by alE13 AC3/DTS]Napisy PL/Eng][Eng]
[HDTV-HD] Miasto Aniołów-City of Angels (1998)-alE13[BRRip 1080p x264 by alE13 AC3/DTS][Lektor i Napisy PL/Eng][Eng]
[HDTV-HD] Barwy Nocy-Color of night (Director\'s Cut) (1994)-alE13[BRRip 1080p x264 by alE13 AC3][Lektor i Napisy PL/Eng][Eng]
[ 3D] Magia Gór-Magie der Bergwelt 3D (2011)[BRRip 1080p x264 by alE13 AC3/DTS][Ger]
[Teledyski/Koncerty] Pearl Jam: The Kids Are Twenty (2011)[BRRip 1080p x264 by alE13 DTS/PCM/AC3][Eng]
[ 3D] Nasza przyroda w 3D-Unsere Natur 3D (2011)[BRRip 1080p x264 by alE13 AC3][Ger]
Szczegóły torrenta
Trackerhttp://auratorrent.pl:8089/announce
Multitracker http://auratorrent.pl:8089/announce
http://pow7.com:80/announce
http://pow7.com/announce
http://tracker.tfile.me/announce
udp://tracker.vanitycore.co:6969/announce
http://tracker.vanitycore.co:6969/announce
http://retracker.omsk.ru:2710/announce
http://mgtracker.org:2710/announce
udp://tracker.leechers-paradise.org:6969/announce
http://mgtracker.org:2710/announce
http://pow7.com:80/announce
http://pow7.com/announce
http://tracker.torrentyorg.pl/announce
udp://inferno.demonoid.ooo:3392/announce
udp://inferno.demonoid.pw:3393/announce
udp://tracker.coppersurfer.tk:6969/announce

Kategoria:Filmy » HDTV-HD
Dodane16/12/2016 22:12:27
Ostatnie Uaktualnienie17/12/2016 06:27:55
Pokaż/Ukryj pliki:
11 plików
NIKT JESZCZE NIE DODAŁ KOMENTARZA

DODAJ KOMENTARZ
Więcej Emoticon



Wstecz

Żaden z opisanych na stronie plików nie jest przetrzymywany na serwerze. Administrator strony immortaltorrent.pl nie może ponieść konsekwencji prawnych za to co użytkownicy zamieszczają lub piszą na stronie.
Nie możesz używać tego serwisu do rozpowszechniania lub ściągania materiałów do których nie masz odpowiednich praw lub licencji. Użytkownicy zobowiązani są do przestrzeganie tych zasad.
Rejestracja konta jest jednoznaczna z akceptacją zasad.

2017 © immortaltorrent.pl


Najlepsze strony Torrentowe