Torrentów: 134067      Ranga: Go¶ć               Stwórz konto Odzyskiwanie hasła


Kategorie
Filmy
 ⇒ DivX - XviD
 ⇒ RMVB
 ⇒ DVD-R
 ⇒ TV + Seriale
 ⇒ HDTV-HD
 ⇒ VCD - SVCD
 ⇒ x 264
 ⇒  3D
Gry
 ⇒ Gry PC
 ⇒ Gry Konsole
 ⇒ xbox360
Muzyka
 ⇒ Muzyka
 ⇒ Teledyski/Koncerty
Ksi±żki - Komiksy
 ⇒ E-Booki + Audio
 ⇒ Komiksy
Inne
 ⇒ XXX
 ⇒ Dla Dzieci
 ⇒ Sport
 ⇒ Pozostałe - Różne
 ⇒ Manga - Anime
 ⇒ GSM - PDA
Aplikacje
 ⇒ Windows
 ⇒ Linux + Macintosh



Detale torrenta

Tony Rome (1967)[BDRip 1080p by alE13 FLAC/AC3[Napisy PL/Eng][Eng]
Kondycja:
Dodane: 01/01/2017
Rozmiar: 7.12 GB
Uploader: alE13

seed(ów): 0
leecher(ów): 0
Pobrane: 0





Ocena: N/A



http://www.imdb.com/title/tt0062380/
http://www.filmweb.pl/film/Tony+Rome-1967-38889

Plik zawiera Sample.

reżyseria: Gordon Douglas
scenariusz: Richard L. Breen
gatunek: Dramat,Kryminał,Thriller
produkcja: USA
premiera: 10-11-1967
muzyka:         Billy May
zdjęcia:        Joseph F. Biroc
czas:           1h 50mn

opis:

Tony Rome, a tough Miami PI living on a houseboat, is hired by a local millionaire
to find jewelry stolen from his daughter, and in the process has several encounters
with local hoods as well as the Miami Beach PD.

Prywatny detektyw dostaje zlecenie od milionera, aby odzyskał biżuterię skradzion±
jego córce.

http://i.imgur.com/PMBISiG.jpg
http://i.imgur.com/Ier8b8N.jpg
http://i.imgur.com/2LJW4IW.jpg
http://i.imgur.com/3wPWHLY.jpg

obsada:

Frank Sinatra, Jill St. John, Richard Conte

dane techniczne:

Tony Rome (1967)-alE13.mkv
Format                      : Matroska
Format version              : Version 4 / Version 2
File size                   : 7.06 GiB
Duration                    : 1 h 50 min
Overall bit rate            : 9 175 kb/s
Movie name                  : Tony Rome (1967)-alE13
Encoded date                : UTC 2017-01-01 09:05:27
Writing application         : mkvmerge v8.1.0 ('Psychedelic Postcard') 64bit
Writing library             : libebml v1.3.1 + libmatroska v1.4.2
Cover                       : Yes
Attachments                 : cover.jpg

Video
ID                          : 1
Format                      : AVC
Format/Info                 : Advanced Video Codec
Format profile              : High@L4.1
Format settings, CABAC      : Yes
Format settings, ReFrames   : 2 frames
Codec ID                    : V_MPEG4/ISO/AVC
Duration                    : 1 h 50 min
Bit rate                    : 8 779 kb/s
Width                       : 1 920 pixels
Height                      : 808 pixels
Display aspect ratio        : 2.40:1
Frame rate mode             : Constant
Frame rate                  : 23.976 (24000/1001) FPS
Color space                 : YUV
Chroma subsampling          : 4:2:0
Bit depth                   : 8 bits
Scan type                   : Progressive
Bits/(Pixel*Frame)          : 0.236
Stream size                 : 6.75 GiB (96%)
Title                       : Tony Rome (1967)-alE13
Writing library             : x264 core 142
Default                     : Yes
Forced                      : No
Color range                 : Limited
Color primaries             : BT.709
Transfer characteristics    : BT.709
Matrix coefficients         : BT.709

Audio
ID                          : 2
Format                      : AC-3
Format/Info                 : Audio Coding 3
Mode extension              : CM (complete main)
Format settings, Endianness : Big
Codec ID                    : A_AC3
Duration                    : 1 h 50 min
Bit rate mode               : Constant
Bit rate                    : 384 kb/s
Channel(s)                  : 2 channels
Channel positions           : Front: L R
Sampling rate               : 48.0 kHz
Frame rate                  : 31.250 FPS (1536 spf)
Bit depth                   : 16 bits
Compression mode            : Lossy
Stream size                 : 302 MiB (4%)
Title                       : Tony Rome (1967)-alE13
Language                    : English
Default                     : No
Forced                      : No

Text #1
ID                          : 3
Format                      : UTF-8
Codec ID                    : S_TEXT/UTF8
Codec ID/Info               : UTF-8 Plain Text
Duration                    : 1 h 46 min
Bit rate                    : 58 b/s
Count of elements           : 1168
Stream size                 : 45.9 KiB (0%)
Title                       : Tony Rome (1967)-alE13
Language                    : Polish
Default                     : Yes
Forced                      : No

Text #2
ID                          : 4
Format                      : VobSub
Muxing mode                 : zlib
Codec ID                    : S_VOBSUB
Codec ID/Info               : Picture based subtitle format used on DVDs
Duration                    : 1 h 49 min
Bit rate                    : 7 781 b/s
Count of elements           : 1511
Stream size                 : 6.10 MiB (0%)
Title                       : Tony Rome (1967)-alE13
Language                    : English
Default                     : No
Forced                      : No

Menu
00:00:00.000                : en:00:00:00.000
00:04:04.661                : en:00:04:04.661
00:09:50.506                : en:00:09:50.507
00:13:05.618                : en:00:13:05.618
00:18:45.166                : en:00:18:45.166
00:22:12.998                : en:00:22:12.998
00:28:04.933                : en:00:28:04.933
00:32:35.537                : en:00:32:35.537
00:37:10.520                : en:00:37:10.520
00:42:15.408                : en:00:42:15.408
00:44:16.027                : en:00:44:16.028
00:50:18.140                : en:00:50:18.140
00:55:24.154                : en:00:55:24.154
01:01:07.789                : en:01:01:07.789
01:04:51.638                : en:01:04:51.638
01:08:28.896                : en:01:08:28.896
01:12:51.158                : en:01:12:51.158
01:17:44.785                : en:01:17:44.785
01:21:59.372                : en:01:21:59.373
01:27:03.552                : en:01:27:03.552
01:29:52.470                : en:01:29:52.470
01:36:43.131                : en:01:36:43.131
01:41:35.673                : en:01:41:35.673
01:46:44.356                : en:01:46:44.356
Podobne torrenty
[HDTV-HD] WiedĽmy-The Witches (1990)[BDRip 1080p by alE13 AC3/FLAC[Lektor i Napisy PL/Eng][Eng]
[HDTV-HD] Księgowy-Accountant (2016)[BDRip 1080p by alE13 DTS/AC3[Napisy PL/Eng][Eng]
[HDTV-HD] Zderzenie-Collide (2016)[BDRip 1080p by alE13 DTS/AC3[Napisy PL/Eng][Eng]
[ 3D] Załoga-Ekipazh 3D (2016)[BDRip 1080p x264 by alE13 AC3][Napisy PL/Eng][Rus]
[HDTV-HD] Tajemnice Los Angeles-L.A. Confidential (1997)[BDRip 1080p by alE13 AC3[Napisy PL/Eng][Eng]
[HDTV-HD] Głęboka Czerwień-Deep Red (1975)[BDRip 1080p by alE13 AC3[Napisy PL/Eng][Eng/Ita]
[HDTV-HD] Wskrzeszony-The Resurrected (1991)[BDRip 1080p by alE13 DTS/AC3][Lektor PL i Napisy Eng][Eng]
[HDTV-HD] Zaginiony Trop-Skiptrace (2016)[BDRip 1080p x264 by alE13 AC3][Napisy PL/Eng][Eng]
[HDTV-HD] State of Grace (1990)[BDRip 1080p x264 by alE13 AC3/DTS][Lektor i Napisy PL/Eng][Eng]
[HDTV-HD] W Potrzasku-The Hunted (1995)[BDRip 1080p x264 by alE13 AC3/DTS][Lektor i Napisy PL/Eng][Eng]
Szczegóły torrenta
Trackerhttp://auratorrent.pl:8089/announce
Multitracker http://auratorrent.pl:8089/announce
http://pow7.com:80/announce
http://pow7.com/announce
http://tracker.tfile.me/announce
http://retracker.omsk.ru:2710/announce
http://mgtracker.org:2710/announce
udp://tracker.leechers-paradise.org:6969/announce
http://mgtracker.org:2710/announce
http://pow7.com:80/announce
http://pow7.com/announce
http://tracker.torrentyorg.pl/announce
udp://inferno.demonoid.ooo:3392/announce
udp://inferno.demonoid.pw:3393/announce
udp://tracker.coppersurfer.tk:6969/announce

Kategoria:Filmy » HDTV-HD
Dodane01/01/2017 10:01:13
Ostatnie Uaktualnienie01/01/2017 10:37:13
Pokaż/Ukryj pliki:
11 plików
NIKT JESZCZE NIE DODAŁ KOMENTARZA

DODAJ KOMENTARZ
Więcej Emoticon



Wstecz

Żaden z opisanych na stronie plików nie jest przetrzymywany na serwerze. Administrator strony immortaltorrent.pl nie może ponieść konsekwencji prawnych za to co użytkownicy zamieszczają lub piszą na stronie.
Nie możesz używać tego serwisu do rozpowszechniania lub ściągania materiałów do których nie masz odpowiednich praw lub licencji. Użytkownicy zobowiązani są do przestrzeganie tych zasad.
Rejestracja konta jest jednoznaczna z akceptacją zasad.

2017 © immortaltorrent.pl


Najlepsze strony Torrentowe