Torrentów: 144734      Ranga: Gosc               Stwórz konto Odzyskiwanie hasła


Kategorie
Filmy
 ⇒ DivX - XviD
 ⇒ RMVB
 ⇒ DVD-R
 ⇒ TV + Seriale
 ⇒ HDTV-HD
 ⇒ VCD - SVCD
 ⇒ x 264
 ⇒  3D
Gry
 ⇒ Gry PC
 ⇒ Gry Konsole
 ⇒ xbox360
Muzyka
 ⇒ Muzyka
 ⇒ Teledyski/Koncerty
Książki - Komiksy
 ⇒ E-Booki + Audio
 ⇒ Komiksy
Inne
 ⇒ XXX
 ⇒ Dla Dzieci
 ⇒ Sport
 ⇒ Pozostałe - Różne
 ⇒ Manga - Anime
 ⇒ GSM - PDA
Aplikacje
 ⇒ Windows
 ⇒ Linux + Macintosh



Detale torrenta

Gomorra 2008 [DVDrip.XviD] [Ita]
Kondycja:
Dodane: 05/01/2009
Rozmiar: 684.29 MB
Uploader: Anonimowy
seed(ów): 767
leecher(ów): 296
Pobrane: 20483





Ocena: N/A

produkcja: W³ochy
gatunek: Dramat, Krymina³

Opis:

Piêæ historii zosta³o splecionych w tym drastycznym scenariuszu, osadzonym w okrutnym i pozornie fikcyjnym ¶wiecie, który jest g³êboko zakorzeniony w rzeczywisto¶ci.

Don Ciro jest il sottomarino. P³aci rodzinom wiê¼niów, którzy s± cz³onkami jego klanu, klanu, który ma niekwestionowan± w³adzê na terytorium. Jest czujny, dyskretny i wykonuje swoj± pracê bez zbytniego zaanga¿owania. Ale w pewnym momencie klan zaczyna siê rozpadaæ. Don Ciro nie wie ju¿, czyich s³uchaæ rozkazów. Zaczyna baæ siê o w³asne ¿ycie.

Totò ma 13 lat i nie mo¿e siê doczekaæ, kiedy bêdzie „doros³y”. Zaczyna wiêc swoj± naukê w szkole ¿ycia, a¿ pewnego dnia staje przed trudnym wyborem, musi podj±æ nieodwracaln± decyzjê.

Marco i Ciro my¶l±, ¿e ¿yj± w filmie Briana de Palmy, ale w obliczu „systemu” s± tylko dwójk± przyb³êdów, których brawura zak³óca rutynê biznesu.

Roberto jest absolwentem uniwersytetu i chce zacz±æ pracê. Franco daje mu wielk± szansê, sta³e zatrudnienie i perspektywê bardzo dobrych zarobków, oferuje mu pracê w bran¿y toksycznych odpadów. Rzeczywisto¶æ okazujê siê jednak zbyt trudna do zaakceptowania dla Roberta.

Pasquale jest utalentowanym krawcem, który potajemnie pracuje dla ma³ego przedsiêbiorstwa wykonuj±cego prace na zlecenie przemys³u haute couture. Chiñscy rywale daj± mu mo¿liwo¶æ przekazania sekretów jego bran¿y. Pasquale poddaje siê pokusie, nara¿aj±c swoje ¿ycie na niebezpieczeñstwo.

Obsada:

Salvatore Abruzzese :Totò
Salvatore Ruocco :Boxer
Gianfelice Imparato :Don Ciro
Maria Nazionale :Maria
Toni Servillo :Franco

Info:

Format : DivX
Format/Info : Hack of AVI
File size : 683 MiB
Duration : 2h 11mn
Overal bit rate : 878 Kbps

Video
Format : MPEG-3 Visual
Format profile : Streaming Video@L1
Format settings, BVOP : Yes
Format settings, QPel : No
Format settings, GMC : 0 warppoint
Format settings, Matrix : Custom
Muxing mode : Packet Bitstream
Codec ID : DX50
Codec ID/Hint : DivX 5
Duration : 1h 48mn
Bit rate : 741 Kbps
Width : 720 pixels
Height : 328 pixels
Display aspect ratio : 1.698
Frame rate : 25.000 fps
Resolution : 8 bits
Colorimetry : 4:2:0
Scan type : Progressive
Bits/(Pixel*Frame) : 0.097
Stream size : 576 MiB


Audio
Format : MPEG Audio
Format version : Version 1 / Layer 3
Codec ID : 55
Codec ID/Hint : MP3
Duration : 1h 48mn
Bit rate mode : CBR
Bit rate : 128 Kbps
Minimum bit rate : 128 Kbps
Channel(s) : 2 channels
Sampling rate : 48.0 KHz
Resolution : 16 bits
Stream size : 99.6 MiB
Podobne torrenty
[DivX - XviD] Gomorra *2008* [3CD] [DVDRip.XviD.AC3]
[DivX - XviD] Gomorra *2008* [DVDRip.XviD] [Napisy PL]
[DivX - XviD] Gomorra *2008* [DVDRip.XViD] [Lektor PL]
[DivX - XviD] Gomorra (2008 [DVDRIP.XVID] [Lektor PL]
[DivX - XviD] Gomorra *2008* [DVDRip.XviD] [Lektor PL]
[RMVB] Gomorra 2008 [DVDRip.RMVB] [Lektor PL]
[DivX - XviD] Gomorra *2008* [DVDSCR.XViD]
[DVD-R] Gomorra (2008) [Limited.PAL.DVD]
[DivX - XviD] Gomorra [DVDSCR.XviD]
[Teledyski/Koncerty] Jean Michel Jarre - Oxygene Tour 2008 Warsaw Torwar (2008) [DVDRip]
Szczegóły torrenta
Trackerhttp://tpb.tracker.thepiratebay.org/announce
Kategoria:Filmy » DivX - XviD
Dodane05/01/2009 13:01:04
Ostatnie Uaktualnienie19/10/2012 22:02:42
NIKT JESZCZE NIE DODAŁ KOMENTARZA

DODAJ KOMENTARZ
Więcej Emoticon



Wstecz

Żaden z opisanych na stronie plików nie jest przetrzymywany na serwerze. Administrator strony immortaltorrent.pl nie może ponieść konsekwencji prawnych za to co użytkownicy zamieszczają lub piszą na stronie.
Nie możesz używać tego serwisu do rozpowszechniania lub ściągania materiałów do których nie masz odpowiednich praw lub licencji. Użytkownicy zobowiązani są do przestrzeganie tych zasad.
Rejestracja konta jest jednoznaczna z akceptacją zasad.

2018 © immortaltorrent.pl


Najlepsze strony Torrentowe