Torrentów: 144798      Ranga: Gosc               Stwórz konto Odzyskiwanie hasła


Kategorie
Filmy
 ⇒ DivX - XviD
 ⇒ RMVB
 ⇒ DVD-R
 ⇒ TV + Seriale
 ⇒ HDTV-HD
 ⇒ VCD - SVCD
 ⇒ x 264
 ⇒  3D
Gry
 ⇒ Gry PC
 ⇒ Gry Konsole
 ⇒ xbox360
Muzyka
 ⇒ Muzyka
 ⇒ Teledyski/Koncerty
Książki - Komiksy
 ⇒ E-Booki + Audio
 ⇒ Komiksy
Inne
 ⇒ XXX
 ⇒ Dla Dzieci
 ⇒ Sport
 ⇒ Pozostałe - Różne
 ⇒ Manga - Anime
 ⇒ GSM - PDA
Aplikacje
 ⇒ Windows
 ⇒ Linux + Macintosh



Detale torrenta

Drużyna potępionych / The Losers (2010) [BDRip 1080p x264 by alE13 AC3/DTS][Lektor i Napisy PL/Eng][Eng]
Kondycja:
Dodane: 11/04/2018
Rozmiar: 8.79 GB
Uploader: alE13

seed(ów): 0
leecher(ów): 0
Pobrane: 0





Ocena: N/A



http://www.imdb.com/title/tt0480255/
http://www.filmweb.pl/film/The+Losers%3A+Dru%C5%BCyna+pot%C4%99pionych-2010-295207

Audio DTS w osobnym pliku.
Plik zawiera Sample.


reżyseria: Sylvain White
scenariusz:Peter BergJames Vanderbilt
gatunek: Akcja
produkcja:USA
premiera: 22-04-2010
muzyka:John Ottman
zdjęcia:Scott Kevan
czas:1h  36min

opis:

A CIA special forces team are betrayed and left for dead by their superiors, galvanizing them to mount an offensive on the CIA.

Grupa komandosów sił specjalnych zostaje zdradzona przez mocodawców. Uznani za zmarłych żołnierze chcą za wszelką
cenę dokonać zemsty i oczyścić dobre imię.

https://i.imgur.com/hQHDkFn.jpg
https://i.imgur.com/9l1w6jk.jpg
https://i.imgur.com/1vCwjTr.jpg
https://i.imgur.com/q80G2sd.jpg

obsada:

Idris Elba, Zoe Saldana, Jeffrey Dean Morgan

dane techniczne:

The Losers (2010)-alE13.mkv
Format                      : Matroska
Format version              : Version 4 / Version 2
File size                   : 7.71 GiB
Duration                    : 1 h 36 min
Overall bit rate            : 11.4 Mb/s
Movie name                  : The Losers (2010)-alE13
Encoded date                : UTC 2018-04-11 07:02:35
Writing application         : mkvmerge v8.1.0 (\'Psychedelic Postcard\') 64bit
Writing library             : libebml v1.3.1 + libmatroska v1.4.2
Cover                       : Yes
Attachments                 : Cover.png

Video
ID                          : 1
Format                      : AVC
Format/Info                 : Advanced Video Codec
Format profile              : High@L4.1
Format settings, CABAC      : Yes
Format settings, ReFrames   : 2 frames
Codec ID                    : V_MPEG4/ISO/AVC
Duration                    : 1 h 36 min
Bit rate                    : 10.8 Mb/s
Width                       : 1 920 pixels
Height                      : 800 pixels
Display aspect ratio        : 2.40:1
Frame rate mode             : Constant
Frame rate                  : 23.976 (24000/1001) FPS
Color space                 : YUV
Chroma subsampling          : 4:2:0
Bit depth                   : 8 bits
Scan type                   : Progressive
Bits/(Pixel*Frame)          : 0.292
Stream size                 : 7.15 GiB (93%)
Title                       : The Losers (2010)-alE13
Writing library             : x264 core 142
Default                     : Yes
Forced                      : No
Color range                 : Limited
Color primaries             : BT.709
Transfer characteristics    : BT.709
Matrix coefficients         : BT.709

Audio #1
ID                          : 2
Format                      : AC-3
Format/Info                 : Audio Coding 3
Mode extension              : CM (complete main)
Format settings, Endianness : Big
Codec ID                    : A_AC3
Duration                    : 1 h 36 min
Bit rate mode               : Constant
Bit rate                    : 448 kb/s
Channel(s)                  : 6 channels
Channel positions           : Front: L C R, Side: L R, LFE
Sampling rate               : 48.0 kHz
Frame rate                  : 31.250 FPS (1536 spf)
Compression mode            : Lossy
Stream size                 : 311 MiB (4%)
Title                       : The Losers (2010)-alE13_AC3
Language                    : English
Default                     : No
Forced                      : No

Audio #2
ID                          : 3
Format                      : AC-3
Format/Info                 : Audio Coding 3
Mode extension              : CM (complete main)
Format settings, Endianness : Big
Codec ID                    : A_AC3
Duration                    : 1 h 36 min
Bit rate mode               : Constant
Bit rate                    : 384 kb/s
Channel(s)                  : 6 channels
Channel positions           : Front: L C R, Side: L R, LFE
Sampling rate               : 48.0 kHz
Frame rate                  : 31.250 FPS (1536 spf)
Compression mode            : Lossy
Stream size                 : 266 MiB (3%)
Title                       : The Losers (2010)-alE13_AC3
Language                    : Polish
Default                     : Yes
Forced                      : No

Text #1
ID                          : 4
Format                      : UTF-8
Codec ID                    : S_TEXT/UTF8
Codec ID/Info               : UTF-8 Plain Text
Duration                    : 1 h 31 min
Bit rate                    : 48 b/s
Count of elements           : 1214
Stream size                 : 32.3 KiB (0%)
Title                       : The Losers (2010)-alE13
Language                    : Polish
Default                     : No
Forced                      : No

Text #2
ID                          : 5
Format                      : UTF-8
Codec ID                    : S_TEXT/UTF8
Codec ID/Info               : UTF-8 Plain Text
Duration                    : 1 h 31 min
Bit rate                    : 58 b/s
Count of elements           : 1210
Stream size                 : 39.4 KiB (0%)
Title                       : The Losers (2010)-alE13
Language                    : English
Default                     : Yes
Forced                      : No

Menu
00:00:00.000                : en:00:00:00.000
00:06:17.085                : en:00:06:17.085
00:10:47.355                : en:00:10:47.355
00:14:59.023                : en:00:14:59.023
00:20:54.878                : en:00:20:54.879
00:25:52.468                : en:00:25:52.468
00:31:21.546                : en:00:31:21.546
00:40:18.248                : en:00:40:18.249
00:46:43.134                : en:00:46:43.134
00:54:42.988                : en:00:54:42.988
00:59:43.205                : en:00:59:43.205
01:05:21.126                : en:01:05:21.126
01:12:58.582                : en:01:12:58.583
01:18:33.959                : en:01:18:33.959
01:26:28.725                : en:01:26:28.725
01:29:41.876                : en:01:29:41.876
Podobne torrenty
[DivX - XviD] Pocałunek potępionych - Kiss of the Damned (2012) [720p] [BRRip] [XviD] [AC3-H1] [Lektor PL]
[HDTV-HD] Człowiek z nikąd-The Man from Nowhere (2010) [BDRip 1080p x264 by alE13 AC3][Napisy PL/Eng][Kor]
[HDTV-HD] U-571 (2000)[BDRip 1080p x264 by alE13 AC3/DTS][Lektor i Napisy PL/Eng][Eng]
[HDTV-HD] Te czasy dawno minęły/Gone Are the Days (2018)-alE13[BDRip 1080p x264 by alE13 AC3/DTS][Napisy PL/Eng][Eng]
[HDTV-HD] Phantom (2013)[BDRip 1080p x264 by alE13 AC3/DTS][Lektor i Napisy PL/Eng][Eng]
[ 3D] Beowulf 3D (2007)[BDRip 1080p x264 by alE13 AC3][Lektor i Napisy PL/Eng][Eng]
[HDTV-HD] Mr. Majestyk (1974)[BDRip 1080p x264 by alE13 AC3/DTS][Lektor i Napisy PL/Eng][Eng]
[ 3D] Hercules 3D (2014)[BDRip 1080p x264 by alE13 AC3][Lektor i Napisy PL/Eng][Eng]
[ 3D] Dredd 3 D (2012)[BDRip 1080p x264 by alE13 AC3][Lektor i Napisy PL/Eng][Eng]
[HDTV-HD] Air Force One (1997[BDRip 1080p x264 by alE13 AC3/DTS][Lektor i Napisy PL/Eng][Eng]
Szczegóły torrenta
Trackerhttp://tracker.torrentyorg.pl/announce
Multitracker http://tracker.torrentyorg.pl/announce
udp://p4p.arenabg.ch:1337/announce
udp://tracker.coppersurfer.tk:6969/announce
udp://tracker.leechers-paradise.org:6969/announce
udp://inferno.demonoid.pw:3391/announce
udp://tracker.opentrackr.org:1337/announce
udp://tracker.ilibr.org:80/announce
http://tracker.devil-torrents.pl/announce

Kategoria:Filmy » HDTV-HD
Dodane11/04/2018 12:04:14
Ostatnie Uaktualnienie11/04/2018 12:43:14
Pokaż/Ukryj pliki:
19 plików
NIKT JESZCZE NIE DODAŁ KOMENTARZA

DODAJ KOMENTARZ
Więcej Emoticon



Wstecz

Żaden z opisanych na stronie plików nie jest przetrzymywany na serwerze. Administrator strony immortaltorrent.pl nie może ponieść konsekwencji prawnych za to co użytkownicy zamieszczają lub piszą na stronie.
Nie możesz używać tego serwisu do rozpowszechniania lub ściągania materiałów do których nie masz odpowiednich praw lub licencji. Użytkownicy zobowiązani są do przestrzeganie tych zasad.
Rejestracja konta jest jednoznaczna z akceptacją zasad.

2018 © immortaltorrent.pl


Najlepsze strony Torrentowe