Torrentów: 145810      Ranga: Gosc               Stwórz konto Odzyskiwanie hasła


Kategorie
Filmy
 ⇒ DivX - XviD
 ⇒ RMVB
 ⇒ DVD-R
 ⇒ TV + Seriale
 ⇒ HDTV-HD
 ⇒ VCD - SVCD
 ⇒ x 264
 ⇒  3D
Gry
 ⇒ Gry PC
 ⇒ Gry Konsole
 ⇒ xbox360
Muzyka
 ⇒ Muzyka
 ⇒ Teledyski/Koncerty
Książki - Komiksy
 ⇒ E-Booki + Audio
 ⇒ Komiksy
Inne
 ⇒ XXX
 ⇒ Dla Dzieci
 ⇒ Sport
 ⇒ Pozostałe - Różne
 ⇒ Manga - Anime
 ⇒ GSM - PDA
Aplikacje
 ⇒ Windows
 ⇒ Linux + Macintosh



Detale torrenta

Pigalak/Hustle (1975)[WEBRip 1080p x264 by alE13 AC3][Napisy PL/Eng/Multi][Eng]
Kondycja:
Dodane: 15/09/2018
Rozmiar: 11.93 GB
Uploader: alE13

seed(ów): 1
leecher(ów): 0
Pobrane: 0





Ocena: N/A



https://www.imdb.com/title/tt0073133/
https://www.filmweb.pl/film/Pigalak-1975-35424

Plik zawiera sample.

reżyseria: Robert Aldrich
scenariusz: Steve Shagan
gatunek: Kryminał,Melodramat,Thriller,Dreszczowiec
produkcja: USA
premiera: 25-12-1975
muzyka:         Frank De Vol
zdjęcia:        Joseph F. Biroc
czas:           1 h 59 min

opis:

At the instigation of a grieving father, a Los Angeles cop investigates the suspicious
circumstances of a girl's apparent suicide.

Zmęczony, cyniczny, nerwowy. Burt Reynolds (Najdłuższy jard, Wiosła w dłoń) gra porucznika
Phila Gainesa - policyjnego wygę z Los Angeles, który nieoczekiwanie popada w tarapaty, gdy
prowadzi śledztwo w sprawie śmierci pewnej nastolatki. Dochodzenie komplikują jego relacje
z chłodną prostytutką (Catherine Deneuve), która jest niebezpiecznie zamieszana w sprawę
– jeden z jej wpływowych klientów (Eddie Albert) jest głównym podejrzanym. Na dodatek
niezrównoważony ojciec ofiary (Ben Johnson) utrudnia pracę Gainesowi, prowadząc własne
chaotyczne śledztwo. Paul Winfield, Eileen Brennan i Jack Carter także występują w tej pełnej
napięcia, szorstkiej opowieści o zbrodni w skorumpowanym mieście, wyreżyserowanej przez
Roberta Aldricha (Najdłuższy jard, Śmiertelny pocałunek).

https://i.imgur.com/yEnPtQa.jpg
https://i.imgur.com/zPGiQML.jpg
https://i.imgur.com/8PcVt7g.jpg
https://i.imgur.com/Or2hyfy.jpg

obsada:

Burt Reynolds (I) (1936–2018) R.I.P.

Catherine Deneuve, Ben Johnson

dane techniczne:

Hustle (1975)-alE13.mkv
Format                      : Matroska
Format version              : Version 4 / Version 2
File size                   : 11.9 GiB
Duration                    : 1 h 59 min
Overall bit rate mode       : Variable
Overall bit rate            : 14.2 Mb/s
Movie name                  : Hustle (1975)-alE13
Encoded date                : UTC 2018-09-15 04:02:05
Writing application         : mkvmerge v8.1.0 ('Psychedelic Postcard') 64bit
Writing library             : libebml v1.3.1 + libmatroska v1.4.2
Cover                       : Yes
Attachments                 : Cover.jpg

Video
ID                          : 1
Format                      : AVC
Format/Info                 : Advanced Video Codec
Format profile              : High@L4
Format settings             : CABAC / 4 Ref Frames
Format settings, CABAC      : Yes
Format settings, ReFrames   : 4 frames
Codec ID                    : V_MPEG4/ISO/AVC
Duration                    : 1 h 59 min
Bit rate mode               : Variable
Bit rate                    : 14.0 Mb/s
Maximum bit rate            : 15.0 Mb/s
Width                       : 1 920 pixels
Height                      : 1 080 pixels
Display aspect ratio        : 16:9
Frame rate mode             : Constant
Frame rate                  : 23.976 (24000/1001) FPS
Color space                 : YUV
Chroma subsampling          : 4:2:0
Bit depth                   : 8 bits
Scan type                   : Progressive
Bits/(Pixel*Frame)          : 0.281
Stream size                 : 11.7 GiB (98%)
Title                       : Hustle (1975)-alE13
Writing library             : x264 core 148 r2623 d5b2374
Default                     : Yes
Forced                      : No
Color range                 : Limited
Color primaries             : BT.709
Transfer characteristics    : BT.709
Matrix coefficients         : BT.709

Audio
ID                          : 2
Format                      : E-AC-3
Format/Info                 : Enhanced Audio Coding 3
Codec ID                    : A_EAC3
Duration                    : 1 h 59 min
Bit rate mode               : Constant
Bit rate                    : 224 kb/s
Channel(s)                  : 2 channels
Channel positions           : Front: L R
Sampling rate               : 48.0 kHz
Frame rate                  : 187.500 FPS (256 SPF)
Compression mode            : Lossy
Stream size                 : 192 MiB (2%)
Title                       : Hustle (1975)-alE13_AC3_Original
Language                    : English
Service kind                : Complete Main
Default                     : No
Forced                      : No

Text #1
ID                          : 3
Format                      : UTF-8
Codec ID                    : S_TEXT/UTF8
Codec ID/Info               : UTF-8 Plain Text
Duration                    : 1 h 55 min
Bit rate                    : 63 b/s
Count of elements           : 1979
Stream size                 : 53.9 KiB (0%)
Title                       : Hustle (1975)-alE13
Language                    : English
Default                     : No
Forced                      : No

Text #2
ID                          : 4
Format                      : UTF-8
Codec ID                    : S_TEXT/UTF8
Codec ID/Info               : UTF-8 Plain Text
Duration                    : 1 h 57 min
Bit rate                    : 67 b/s
Count of elements           : 2138
Stream size                 : 57.4 KiB (0%)
Title                       : Hustle (1975)-alE13_SDH
Language                    : English
Default                     : No
Forced                      : No

Text #3
ID                          : 5
Format                      : UTF-8
Codec ID                    : S_TEXT/UTF8
Codec ID/Info               : UTF-8 Plain Text
Duration                    : 1 h 56 min
Bit rate                    : 65 b/s
Count of elements           : 1464
Stream size                 : 56.0 KiB (0%)
Title                       : Hustle (1975)-alE13
Language                    : French
Default                     : No
Forced                      : No

Text #4
ID                          : 6
Format                      : UTF-8
Codec ID                    : S_TEXT/UTF8
Codec ID/Info               : UTF-8 Plain Text
Duration                    : 1 h 56 min
Bit rate                    : 65 b/s
Count of elements           : 1463
Stream size                 : 56.1 KiB (0%)
Title                       : Hustle (1975)-alE13
Language                    : German
Default                     : No
Forced                      : No

Text #5
ID                          : 7
Format                      : UTF-8
Codec ID                    : S_TEXT/UTF8
Codec ID/Info               : UTF-8 Plain Text
Duration                    : 1 h 55 min
Bit rate                    : 58 b/s
Count of elements           : 1464
Stream size                 : 49.5 KiB (0%)
Title                       : Hustle (1975)-alE13
Language                    : Romanian
Default                     : No
Forced                      : No

Text #6
ID                          : 8
Format                      : UTF-8
Codec ID                    : S_TEXT/UTF8
Codec ID/Info               : UTF-8 Plain Text
Duration                    : 1 h 57 min
Bit rate                    : 60 b/s
Count of elements           : 1466
Stream size                 : 52.0 KiB (0%)
Title                       : Hustle (1975)-alE13
Language                    : Finnish
Default                     : No
Forced                      : No

Text #7
ID                          : 9
Format                      : UTF-8
Codec ID                    : S_TEXT/UTF8
Codec ID/Info               : UTF-8 Plain Text
Duration                    : 1 h 55 min
Bit rate                    : 99 b/s
Count of elements           : 1464
Stream size                 : 84.7 KiB (0%)
Title                       : Hustle (1975)-alE13
Language                    : Greek
Default                     : No
Forced                      : No

Text #8
ID                          : 10
Format                      : UTF-8
Codec ID                    : S_TEXT/UTF8
Codec ID/Info               : UTF-8 Plain Text
Duration                    : 1 h 56 min
Bit rate                    : 62 b/s
Count of elements           : 1464
Stream size                 : 53.3 KiB (0%)
Title                       : Hustle (1975)-alE13
Language                    : Portuguese
Default                     : No
Forced                      : No

Text #9
ID                          : 11
Format                      : UTF-8
Codec ID                    : S_TEXT/UTF8
Codec ID/Info               : UTF-8 Plain Text
Duration                    : 1 h 55 min
Bit rate                    : 58 b/s
Count of elements           : 1465
Stream size                 : 49.9 KiB (0%)
Title                       : Hustle (1975)-alE13
Language                    : Polish
Default                     : Yes
Forced                      : No

Menu
00:00:00.000                : en:01. Beach Discovery
00:07:53.560                : en:02. Positive ID
00:16:48.400                : en:03. Remembering Rome
00:26:30.640                : en:04. Open/Shut Case?
00:33:47.600                : en:05. Searching for Answers
00:39:34.280                : en:06. Hostage Negotiating
00:45:47.760                : en:07. Finding Moby Dick
00:52:25.960                : en:08. Marty Investigates
01:02:46.600                : en:09. A Day With Nicole
01:11:04.280                : en:10. Making a Compromise
01:16:37.520                : en:11. A Visit With Leo
01:25:27.080                : en:12. Paula Hollinger's Past
01:34:09.280                : en:13. Undeniable Proof
01:40:57.040                : en:14. Marty's Rampage
01:48:30.240                : en:15. Man Down

Podobne torrenty
[HDTV-HD] Alamo/The Alamo (1960)[WEBRip 1080p x264 by alE13 AC3][Lektor i Napisy PL/Multi][Eng]
[ 3D] Geostorm 3D (2017)[BDRip 1080p x264 by alE13 AC3/DTS/Multi][Napisy PL/Multi][Eng]
[HDTV-HD] Ostatni bastion/The Last Castle (2001)[WebRip 1080p x264 by alE13 AC3][Lektor PL/Multi Sub][Eng]
[HDTV-HD] Szczęki/Jaws (1975)[BRRip 1080p x264 by alE13 AC3/DTS-Master Audio][Lektor i Napisy PL/Eng][Eng]
[HDTV-HD] Ciężkie Czasy-Hard Times (1975)[BDRip 1080p x264 by alE13 AC3/DTS][Lektor i Napisy PL/Eng]][Eng]
[ 3D] Shrek trzeci-Shrek the Third 3D (2007) [BRRip 1080p x264 by alE13 AC3/DTS/Multi]Dubbing i Napisy PL/Multi][Eng]
[HDTV-HD] Detektyw K: Tajemnica żywych trupów/Detective K:Secret of the Living Dead (2018)-alE13[WEBRip 1080p x264 by alE13 AC3][Napisy PL/Eng][Kor]
[HDTV-HD] Wilcze Szczeniê-Urufu gai: Moero ôkami-otoko (1975)[BRRip 1080p x264 by alE13 AC3/FLAC][Napisy PL/Eng][Japanese]
[HDTV-HD] Quo Vadis (1951)[BRRip 1080p x264 by alE13 AC3][Lektor i Napisy PL/Eng/Multi][Eng]
[ 3D] Pasa¿erowie-Passengers 3D (2016)[BDRip 1080p x264 by alE13 AC3/DTS][Napisy PL/Eng/Multi Sub][Eng]
Szczegóły torrenta
Trackerudp://tracker.opentrackr.org:1337/announce
Multitracker udp://tracker.opentrackr.org:1337/announce
udp://tracker.coppersurfer.tk:6969/announce
udp://tracker.leechers-paradise.org:6969/announce
udp://inferno.demonoid.pw:3391/announce
http://tracker.torrentyorg.pl/announce
udp://p4p.arenabg.ch:1337/announce
http://tracker.devil-torrents.pl/announce
udp://tracker.ilibr.org:80/announce

Kategoria:Filmy » HDTV-HD
Dodane15/09/2018 06:09:36
Ostatnie Uaktualnienie15/09/2018 06:43:36
Pokaż/Ukryj pliki:
22 plików
NIKT JESZCZE NIE DODAŁ KOMENTARZA

DODAJ KOMENTARZ
Więcej Emoticon



Wstecz

Żaden z opisanych na stronie plików nie jest przetrzymywany na serwerze. Administrator strony immortaltorrent.pl nie może ponieść konsekwencji prawnych za to co użytkownicy zamieszczają lub piszą na stronie.
Nie możesz używać tego serwisu do rozpowszechniania lub ściągania materiałów do których nie masz odpowiednich praw lub licencji. Użytkownicy zobowiązani są do przestrzeganie tych zasad.
Rejestracja konta jest jednoznaczna z akceptacją zasad.

2018 © immortaltorrent.pl


Najlepsze strony Torrentowe