Torrentów: 136568      Ranga: Go¶ć               Stwórz konto Odzyskiwanie hasła


Kategorie
Filmy
 ⇒ DivX - XviD
 ⇒ RMVB
 ⇒ DVD-R
 ⇒ TV + Seriale
 ⇒ HDTV-HD
 ⇒ VCD - SVCD
 ⇒ x 264
 ⇒  3D
Gry
 ⇒ Gry PC
 ⇒ Gry Konsole
 ⇒ xbox360
Muzyka
 ⇒ Muzyka
 ⇒ Teledyski/Koncerty
Ksi±żki - Komiksy
 ⇒ E-Booki + Audio
 ⇒ Komiksy
Inne
 ⇒ XXX
 ⇒ Dla Dzieci
 ⇒ Sport
 ⇒ Pozostałe - Różne
 ⇒ Manga - Anime
 ⇒ GSM - PDA
Aplikacje
 ⇒ Windows
 ⇒ Linux + Macintosh



Detale torrenta

Jupiter: Intronizacja-Jupiter Ascending 3D (2015) [BRRip 1080p x264 by alE13 AC3][Lektor i Napisy PL/Eng][Eng]
Kondycja:
Dodane: 11/09/2017
Rozmiar: 8.61 GB
Uploader: alE13

seed(ów): 1
leecher(ów): 1
Pobrane: 0





Ocena: N/A

[img]https://i.imgur.com/K7CjmEP.jpg[/img]

http://www.imdb.com/title/tt1617661/
http://www.filmweb.pl/film/Jupiter%3A+Intronizacja-2015-654721

Film w wersji 3D Half Over/Under.
Plik zawiera Sample.


reżyseria: Lilly Wachowski,Lana Wachowski
scenariusz: Lilly Wachowski,Lana Wachowski
gatunek: Akcja,Sci-Fi
produkcja: Australia,USA
premiera: 27-01-2015
muzyka:         Michael Giacchino
zdjęcia:        John Toll
czas:           2h 7min

opis:

A young woman discovers her destiny as an heiress of intergalactic nobility and must fight to protect
the inhabitants of Earth from an ancient and destructive industry.

Genetycznie zmodyfikowany były łowca przybywa na Ziemię, by odnaleĽć młod± dziewczynę, której przeznaczone
jest niezwykłe dziedzictwo.

https://i.imgur.com/HINzSwa.jpg
https://i.imgur.com/K8WJNkD.jpg
https://i.imgur.com/6za4TnE.jpg
https://i.imgur.com/as66nJR.jpg

obsada:

Channing Tatum, Mila Kunis, Sean Bean

dane techniczne:

Jupiter Ascending 3D (2015)-alE13.mkv
Format                      : Matroska
Format version              : Version 4 / Version 2
File size                   : 8.56 GiB
Duration                    : 2 h 7 min
Overall bit rate            : 9 605 kb/s
Movie name                  : Jupiter Ascending 3D (2015)-alE13
Encoded date                : UTC 2017-09-11 18:10:51
Writing application         : mkvmerge v8.1.0 ('Psychedelic Postcard') 64bit
Writing library             : libebml v1.3.1 + libmatroska v1.4.2
Cover                       : Yes
Attachments                 : Cover.jpg

Video
ID                          : 1
Format                      : MPEG-4 Visual
Format settings, BVOP       : Yes
Format settings, QPel       : No
Format settings, GMC        : No warppoints
Format settings, Matrix     : Default (H.263)
Codec ID                    : V_MS/VFW/FOURCC / DX50
Codec ID/Hint               : DivX 5
Duration                    : 2 h 7 min
Bit rate                    : 8 499 kb/s
Nominal bit rate            : 6 896 kb/s
Width                       : 1 920 pixels
Height                      : 800 pixels
Display aspect ratio        : 2.40:1
Frame rate mode             : Constant
Frame rate                  : 23.976 (24000/1001) FPS
Color space                 : YUV
Chroma subsampling          : 4:2:0
Bit depth                   : 8 bits
Scan type                   : Progressive
Compression mode            : Lossy
Bits/(Pixel*Frame)          : 0.231
Stream size                 : 7.57 GiB (88%)
Title                       : Jupiter Ascending 3D (2015)-alE13
Writing library             : DivX 2682
Default                     : Yes
Forced                      : No

Audio #1
ID                          : 2
Format                      : AC-3
Format/Info                 : Audio Coding 3
Format settings, Endianness : Big
Codec ID                    : A_AC3
Duration                    : 2 h 7 min
Bit rate mode               : Constant
Bit rate                    : 448 kb/s
Channel(s)                  : 6 channels
Channel positions           : Front: L C R, Side: L R, LFE
Sampling rate               : 44.1 kHz
Frame rate                  : 28.711 FPS (1536 SPF)
Bit depth                   : 16 bits
Compression mode            : Lossy
Stream size                 : 409 MiB (5%)
Title                       : Jupiter Ascending 3D (2015)-alE13_AC3
Language                    : Polish
Service kind                : Complete Main
Default                     : Yes
Forced                      : No

Audio #2
ID                          : 3
Format                      : AC-3
Format/Info                 : Audio Coding 3
Format settings, Endianness : Big
Codec ID                    : A_AC3
Duration                    : 2 h 7 min
Bit rate mode               : Constant
Bit rate                    : 640 kb/s
Channel(s)                  : 6 channels
Channel positions           : Front: L C R, Side: L R, LFE
Sampling rate               : 48.0 kHz
Frame rate                  : 31.250 FPS (1536 SPF)
Bit depth                   : 16 bits
Compression mode            : Lossy
Stream size                 : 584 MiB (7%)
Title                       : Jupiter Ascending 3D (2015)-alE13_AC3
Language                    : English
Service kind                : Complete Main
Default                     : No
Forced                      : No

Text #1
ID                          : 4
Format                      : VobSub
Muxing mode                 : zlib
Codec ID                    : S_VOBSUB
Codec ID/Info               : Picture based subtitle format used on DVDs
Duration                    : 1 h 56 min
Bit rate                    : 8 098 b/s
Count of elements           : 1219
Stream size                 : 6.77 MiB (0%)
Title                       : Jupiter Ascending 3D (2015)-alE13_VobSub
Language                    : Polish
Default                     : No
Forced                      : No

Text #2
ID                          : 5
Format                      : VobSub
Muxing mode                 : zlib
Codec ID                    : S_VOBSUB
Codec ID/Info               : Picture based subtitle format used on DVDs
Duration                    : 1 h 56 min
Bit rate                    : 8 117 b/s
Count of elements           : 1175
Stream size                 : 6.78 MiB (0%)
Title                       : Jupiter Ascending 3D (2015)-alE13_VobSub
Language                    : English
Default                     : No
Forced                      : No

Text #3
ID                          : 6
Format                      : UTF-8
Codec ID                    : S_TEXT/UTF8
Codec ID/Info               : UTF-8 Plain Text
Duration                    : 1 h 56 min
Bit rate                    : 49 b/s
Count of elements           : 1219
Stream size                 : 42.4 KiB (0%)
Title                       : Jupiter Ascending 3D (2015)-alE13_SRT
Language                    : Polish
Default                     : No
Forced                      : No

Text #4
ID                          : 7
Format                      : UTF-8
Codec ID                    : S_TEXT/UTF8
Codec ID/Info               : UTF-8 Plain Text
Duration                    : 1 h 56 min
Bit rate                    : 52 b/s
Count of elements           : 1175
Stream size                 : 44.9 KiB (0%)
Title                       : Jupiter Ascending 3D (2015)-alE13_SRT
Language                    : English
Default                     : No
Forced                      : No
Podobne torrenty
[DivX - XviD] Jupiter Intronizacja - Jupiter Ascending 2015 [BRRip] [XviD-KiT] [Lektor PL]
[DivX - XviD] Jupiter Intronizacja - Jupiter Ascending *2015* [720 p] [WEB-DL] [XviD] [AC3-MORSS] [Napisy PL]
[DivX - XviD] Jupiter:Intronizacja - Jupiter Ascending *2015* [DVDRip] [XviD-NN][m19][Lektor PL]
[HDTV-HD] Ujrzałem ¦wiatło: Historia Hanka Williamsa - I Saw the Light (2015)[BRRip 1080p x264 by alE13 AC3/DTS][Lektor i Napisy PL/Eng][Eng]
[HDTV-HD] I Ujrzałem ¦wiatło: Historia Hanka Williamsa-I Saw the Light (2015)[BRRip 1080p x264 by alE13 AC3/DTS][Lektor i Napisy PL/Eng][Eng]
[HDTV-HD] Wrota za¶wiatów-Pay the Ghost (2015)[BRRip 1080p x264 by alE13 AC3/DTS][Napisy PL/Eng][Eng]
[ 3D] Sawa. Mały wielki bohater-Savva. Heart of the Warrior 3D (2015)-alE13[BRRip 1080p x264 by alE13 AC3][Dubbing PL/Eng][Rus]
[HDTV-HD] Szybcy i w¶ciekli 8-The Fate of the Furious (2017)-alE13[BRRip 1080p x264 by alE13 AC3/DTS]Napisy PL/Eng][Eng]
[Teledyski/Koncerty] Shania Twain-Still-The One-Live From Vegas(2015)[BRRip.1080p.x264 by alE13 AC3/PCM/DTS-HD/MA][Eng]
[HDTV-HD] Shania Twain-Still-The One-Live From Vegas(2015)[BRRip.1080p.x264 by alE13 AC3/PCM/DTS-HD/MA][Eng]
Szczegóły torrenta
Trackerhttp://tracker.devil-torrents.pl/announce
Multitracker http://tracker.devil-torrents.pl/announce
http://tracker.torrentyorg.pl/announce
udp://tracker.opentrackr.org:1337/announce
udp://tracker.leechers-paradise.org:6969/announce
udp://tracker.ilibr.org:80/announce
udp://tracker.coppersurfer.tk:6969/announce
udp://p4p.arenabg.ch:1337/announce
udp://inferno.demonoid.pw:3391/announce

Kategoria:Filmy » 3D
Dodane11/09/2017 20:09:44
Ostatnie Uaktualnienie11/09/2017 20:37:45
Pokaż/Ukryj pliki:
16 plików
NIKT JESZCZE NIE DODAŁ KOMENTARZA

DODAJ KOMENTARZ
Więcej Emoticon



Wstecz

Żaden z opisanych na stronie plików nie jest przetrzymywany na serwerze. Administrator strony immortaltorrent.pl nie może ponieść konsekwencji prawnych za to co użytkownicy zamieszczają lub piszą na stronie.
Nie możesz używać tego serwisu do rozpowszechniania lub ściągania materiałów do których nie masz odpowiednich praw lub licencji. Użytkownicy zobowiązani są do przestrzeganie tych zasad.
Rejestracja konta jest jednoznaczna z akceptacją zasad.

2017 © immortaltorrent.pl


Najlepsze strony Torrentowe