Torrentów: 142017      Ranga: Gosc               Stwórz konto Odzyskiwanie hasła


Kategorie
Filmy
 ⇒ DivX - XviD
 ⇒ RMVB
 ⇒ DVD-R
 ⇒ TV + Seriale
 ⇒ HDTV-HD
 ⇒ VCD - SVCD
 ⇒ x 264
 ⇒  3D
Gry
 ⇒ Gry PC
 ⇒ Gry Konsole
 ⇒ xbox360
Muzyka
 ⇒ Muzyka
 ⇒ Teledyski/Koncerty
Książki - Komiksy
 ⇒ E-Booki + Audio
 ⇒ Komiksy
Inne
 ⇒ XXX
 ⇒ Dla Dzieci
 ⇒ Sport
 ⇒ Pozostałe - Różne
 ⇒ Manga - Anime
 ⇒ GSM - PDA
Aplikacje
 ⇒ Windows
 ⇒ Linux + Macintosh



Detale torrenta

Rammstein-Paris (2017)[BRRip 1080p x264 by alE13 AC3/DTS/PCM][Ger]
Kondycja:
Dodane: 27/05/2017
Rozmiar: 11.29 GB
Uploader: alE13

seed(ów): 1
leecher(ów): 0
Pobrane: 0





Ocena: N/A



http://www.imdb.com/title/tt5722116/

Audio DTS/PCM w osobnym pliku.
Plik zawiera Sample.


data:         2017
produkcja:    Germany
reyseria:    Jonas Åkerlund
gatunek:      koncert, Neue Deutsche Hrte, industrial metal,
heavy metal, industrial, metal alternatywny, metal progresywny
wytwrnia:    Spinefarm
czas:         2h 8min

opis:

Rammstein's concert recorded in Paris, back in 2012.

more:

https://en.wikipedia.org/wiki/Rammstein

Rammstein (czsto zapisywane skrtowo jako R+) – niemiecki zesp grajcy muzyk z gatunku
Neue Deutsche Hrte. Powsta w 1994 roku, jego nazwa pochodzi od amerykaskiej bazy lotniczej
(Ramstein Air Base) w Niemczech, pooonej obok miasta Ramstein-Miesenbach, w ktrej miaa
miejsce katastrofa lotnicza, o ktrej zesp nagra utwr o tej samej nazwie. Pocztkowo nazwa
brzmiaa „Rammstein Flugschau”, ktra jednak w niedalekiej przyszoci zostaa skrcona do Rammstein.
Paul Landers, jeden z wczesnych twrcw nowej nazwy, w pniejszym czasie wyjani, i nowa nazwa
zespou zostaa wymylona dla zabawy i dodatkowo ze wzgldu na niewiedz omykowo zapisana przez
dwa M. Pomimo innych pomysw na nazw zespou (m.in. Milch, Erde oraz Mutter), grupie nie udao
si ju pozby starszego nazewnictwa. Zesp od pocztku kariery, sprzeda na wiecie 17 milionw
pyt. Rammstein jest te pierwszym zespoem z Niemiec, ktry wyprzeda synn nowojorsk Madison
Square Garden.

Jest to zapis koncertu z 2012 roku.

http://i.imgur.com/ATxjDTS.jpg
http://i.imgur.com/jr3MZ2M.jpg
http://i.imgur.com/q9nWX2r.jpg
http://i.imgur.com/jpNLH4Y.jpg

obsada:

Richard Kruspe, Paul Landers, Till Lindemann


tracklist:

01. Intro
02. Sonne
03. Wollt Ihr Das Bett In Flammen Sehen
04. Keine Lust
05. Sehnsucht
06. Asche Zu Asche
07. Feuer Frei!
08. Mutter
09. Mein Teil
10. Du Riechst So gut
11. Links 2-3-4
12. Du Hast
13. Haifisch
14. Bck Dich
15. Mann Gegen Mann
16. Ohne Dich
17. Mein Herz Brennt
18. Amerika
19. Ich Will
20. Engel
21. Pussy
22. Frhling In Paris
23. Making Of

dane techniczne:

Audio (0):
Kodek:         (PCM) PCM
Format:       PCM
Kanay:       2 channels
BitRate:       2 304 kb/s
Tytu:         Rammstein - Paris (2017)-alE13_PCM
Jzyk:       German

Audio (1):
Kodek:         (DTS) DTS
Format:       DTS
Kanay:       6 channels
BitRate:       1 509 kb/s
Tytu:         Rammstein - Paris (2017)-alE13_DTS
Jzyk:       German

Rammstein - Paris (2017)-alE13.mkv
Format                      : Matroska
Format version              : Version 4 / Version 2
File size                   : 7.83 GiB
Duration                    : 2 h 8 min
Overall bit rate            : 8 746 kb/s
Movie name                  : Rammstein - Paris (2017)-alE13
Encoded date                : UTC 2017-05-27 10:44:23
Writing application         : mkvmerge v8.1.0 ('Psychedelic Postcard') 64bit
Writing library             : libebml v1.3.1 + libmatroska v1.4.2
Cover                       : Yes
Attachments                 : cover.jpg

Video
ID                          : 1
Format                      : AVC
Format/Info                 : Advanced Video Codec
Format profile              : High@L4.1
Format settings, CABAC      : Yes
Format settings, ReFrames   : 2 frames
Codec ID                    : V_MPEG4/ISO/AVC
Duration                    : 2 h 8 min
Bit rate                    : 8 295 kb/s
Width                       : 1 920 pixels
Height                      : 1 080 pixels
Display aspect ratio        : 16:9
Frame rate mode             : Constant
Frame rate                  : 25.000 FPS
Color space                 : YUV
Chroma subsampling          : 4:2:0
Bit depth                   : 8 bits
Scan type                   : Progressive
Bits/(Pixel*Frame)          : 0.160
Stream size                 : 7.43 GiB (95%)
Title                       : Rammstein - Paris (2017)-alE13
Writing library             : x264 core 142
Default                     : Yes
Forced                      : No
Color range                 : Limited
Color primaries             : BT.709
Transfer characteristics    : BT.709
Matrix coefficients         : BT.709

Audio
ID                          : 2
Format                      : AC-3
Format/Info                 : Audio Coding 3
Mode extension              : CM (complete main)
Format settings, Endianness : Big
Codec ID                    : A_AC3
Duration                    : 2 h 8 min
Bit rate mode               : Constant
Bit rate                    : 448 kb/s
Channel(s)                  : 6 channels
Channel positions           : Front: L C R, Side: L R, LFE
Sampling rate               : 48.0 kHz
Frame rate                  : 31.250 FPS (1536 spf)
Compression mode            : Lossy
Stream size                 : 411 MiB (5%)
Title                       : Rammstein - Paris (2017)-alE13_AC3
Language                    : German
Default                     : No
Forced                      : No

Menu
00:00:00.000                : en:Intro
00:05:45.040                : en:Sonne
00:10:46.400                : en:Wollt Ihr Das Bett In Flammen Sehen
00:15:47.560                : en:Keine Lust
00:19:57.000                : en:Sehnsucht
00:24:21.960                : en:Asche Zu Asche
00:28:29.359                : en:Feuer Frei!
00:32:02.840                : en:Mutter
00:37:26.080                : en:Mein Teil
00:45:10.000                : en:Du Riechst So gut
00:50:38.479                : en: Links 2-3-4
00:55:41.520                : en:Du Hast
00:59:59.960                : en:Haifisch
01:06:57.560                : en:Bck Dich
01:14:52.399                : en:Mann Gegen Mann
01:19:07.840                : en:Ohne Dich
01:27:21.120                : en:Mein Herz Brennt
01:32:27.600                : en:Amerika
01:37:21.920                : en:Ich Will
01:41:26.160                : en:Engel
01:46:42.120                : en: Pussy
02:01:47.600                : en:Frhling In Paris
Podobne torrenty
[HDTV-HD] Sting à l\'Olympia de Paris (2017) [BRRip 1080p x264 by alE13 DTS/PCM][Eng]
[HDTV-HD] Szybcy i wciekli 8-The Fate of the Furious (2017)-alE13[BRRip 1080p x264 by alE13 AC3/DTS]Napisy PL/Eng][Eng]
[HDTV-HD] Zabi Gunthera-Killing Gunther (2017)-alE13[BRRip 1080p x264 by alE13 AC3/DTS][Napisy PL/Eng][Eng]
[HDTV-HD] Aftermath (2017)[BRRip 1080p x264 by alE13 AC3][Napisy PL/Eng][Eng]
[ 3D] Kraftwerk: 1 2 3 4 5 6 7 8-3D (2017)[BRRip 1080p x264 by alE13 AC3/TrueHD][Ger]
[HDTV-HD] Ochroniarz-Security (2017)[BRRip 1080p x264 by alE13 AC3/DTS][Napisy PL/Eng/Fre][Eng]
[HDTV-HD] STATUS QUO-The Last Night Of The Electrics (2017)[BRRip 1080p x264 by alE13 AC3/DTS/PCM][Eng]
[HDTV-HD] Bunt-Revolt (2017)[BRRip 1080p x264 by alE13 AC3/DTS][Napisy PL/Eng][Eng]
[ 3D] Salut-7-Salyut-7 3D (2017)[BRRip 1080p x264 by alE13 AC3][Napisy PL/Eng][Rus]
[HDTV-HD] John Wick 2 (2017)[BRRip 1080p x264 by alE13 AC3/TrueHD][Napisy PL/Eng][Eng]
Szczegóły torrenta
Trackerhttp://tracker.devil-torrents.pl/announce
Multitracker http://tracker.devil-torrents.pl/announce
http://tracker.torrentyorg.pl/announce
udp://tracker.opentrackr.org:1337/announce
udp://tracker.leechers-paradise.org:6969/announce
udp://tracker.ilibr.org:80/announce
udp://tracker.coppersurfer.tk:6969/announce
udp://p4p.arenabg.ch:1337/announce
udp://inferno.demonoid.pw:3391/announce

Kategoria:Muzyka » Teledyski/Koncerty
Dodane27/05/2017 14:05:27
Ostatnie Uaktualnienie27/05/2017 14:43:28
Pokaż/Ukryj pliki:
18 plików
NIKT JESZCZE NIE DODAŁ KOMENTARZA

DODAJ KOMENTARZ
Więcej Emoticon



Wstecz

Żaden z opisanych na stronie plików nie jest przetrzymywany na serwerze. Administrator strony immortaltorrent.pl nie może ponieść konsekwencji prawnych za to co użytkownicy zamieszczają lub piszą na stronie.
Nie możesz używać tego serwisu do rozpowszechniania lub ściągania materiałów do których nie masz odpowiednich praw lub licencji. Użytkownicy zobowiązani są do przestrzeganie tych zasad.
Rejestracja konta jest jednoznaczna z akceptacją zasad.

2018 © immortaltorrent.pl


Najlepsze strony Torrentowe