Torrentów: 134075      Ranga: Gość               Stwórz konto Odzyskiwanie hasła


Kategorie
Filmy
 ⇒ DivX - XviD
 ⇒ RMVB
 ⇒ DVD-R
 ⇒ TV + Seriale
 ⇒ HDTV-HD
 ⇒ VCD - SVCD
 ⇒ x 264
 ⇒  3D
Gry
 ⇒ Gry PC
 ⇒ Gry Konsole
 ⇒ xbox360
Muzyka
 ⇒ Muzyka
 ⇒ Teledyski/Koncerty
Książki - Komiksy
 ⇒ E-Booki + Audio
 ⇒ Komiksy
Inne
 ⇒ XXX
 ⇒ Dla Dzieci
 ⇒ Sport
 ⇒ Pozostałe - Różne
 ⇒ Manga - Anime
 ⇒ GSM - PDA
Aplikacje
 ⇒ Windows
 ⇒ Linux + Macintosh



Detale torrenta

Grunt to rodzinka (2004) [DVDRip] [XviD-torentup] [Lektor PL ]
Kondycja:
Dodane: 06/11/2015
Rozmiar: 697.92 MB
Uploader: torentup

seed(ów): 7
leecher(ów): 1
Pobrane: 134





Ocena: N/A

=====================
INFO
================

gatunek: Komedia
produkcja: Francja
premiera: 24 czerwca 2005 (Polska), 6 października 2004 (świat)
reżyseria: Alain Berberian
scenariusz: Christian Clavier, Michel Delgado
Filmweb: http://www.filmweb.pl/Grunt.To.Rodzinka


=====================
OPIS
====================

Paryski detektyw Jack Palmer, dostaje misję: musi odnaleźć niejakiego Ange'a Leoni i wręczyć mu dokument stwierdzający otrzymanie spadku. Dla tak doświadczonego tropiciela nie stanowi to większego wyzwania. Okazuje się jednak, że Leoni mieszka na Korsyce, przewodzi jednej z tamtejszych grup separatystycznych i, na dodatek, jest usilnie poszukiwany przez policję

=====================
OBSADA
====================

Jean Reno: Ange Leoni
Christian Clavier: Rémi François, Det. Jack Palmer
Caterina Murino: Léa Leoni
Alain Maratrat: De Vlaminck
Didier Flamand: Dargent

=====================
DANE TECHNICZNE
=====================

ormat                         : AVI
Format/Info                    : Audio Video Interleave
File size                      : 698 MiB
Duration                       : 1h 29mn
Overall bit rate               : 1 089 Kbps
Writing application            : VirtualDubMod 1.5.10.2 (build 2540/release)
Writing library                : VirtualDubMod build 2540/release

Video
ID                             : 0
Format                         : MPEG-4 Visual
Format profile                 : Advanced Simple@L5
Format settings, BVOP          : Yes
Format settings, QPel          : No
Format settings, GMC           : No warppoints
Format settings, Matrix        : Default (H.263)
Codec ID                       : XVID
Codec ID/Hint                  : XviD
Duration                       : 1h 29mn
Bit rate                       : 951 Kbps
Width                          : 704 pixels
Height                         : 288 pixels
Display aspect ratio           : 2.40:1
Frame rate                     : 25.000 fps
Color space                    : YUV
Chroma subsampling             : 4:2:0
Bit depth                      : 8 bits
Scan type                      : Progressive
Compression mode               : Lossy
Bits/(Pixel*Frame)             : 0.188
Stream size                    : 610 MiB (87%)
Writing library                : XviD 1.0.3 (UTC 2004-12-20)

Audio
ID                             : 1
Format                         : MPEG Audio
Format version                 : Version 1
Format profile                 : Layer 3
Mode                           : Joint stereo
Mode extension                 : MS Stereo
Codec ID                       : 55
Codec ID/Hint                  : MP3
Duration                       : 1h 29mn
Bit rate mode                  : Constant
Bit rate                       : 128 Kbps
Channel(s)                     : 2 channels
Sampling rate                  : 48.0 KHz
Compression mode               : Lossy
Stream size                    : 82.0 MiB (12%)
Alignment                      : Aligned on interleaves
Interleave, duration           : 40 ms (1.00 video frame)
Interleave, preload duration   : 504 ms

Podobne torrenty
[DivX - XviD] Grunt to rodzinka - L\\\'Enquete corse *2004* [DVDRip.XviD-kris00] [AC3] [5:1] [Lektor PL]
[x 264] Grunt to rodzinka - L\'Enquete corse (2004) [720p.BRRip.x264.AC3] [Lektor i Napisy PL]
[TV + Seriale] Doktor House - S01E01 (2004) [DVDRip XviD-torentup] [Lektor PL]
[TV + Seriale] Doktor House - S01E02 (2004) [DVDRip XviD-torentup] [Lektor PL]
[TV + Seriale] Doktor House - S01E03 (2004) [DVDRip XviD-torentup] [Lektor PL]
[TV + Seriale] Doktor House - S01E04 (2004) [DVDRip XviD-torentup] [Lektor PL]
[TV + Seriale] Doktor House - S01E05 (2004) [DVDRip XviD-torentup] [Lektor PL]
[TV + Seriale] Doktor House - S01E06 (2004) [DVDRip XviD-torentup] [Lektor PL]
[TV + Seriale] Doktor House - S01E07 (2004) [DVDRip XviD-torentup] [Lektor PL]
[DivX - XviD] Rodzinka - Family (2006) [DVDRip] [Xvid-żłopuś] [AC3-5.1] (lektor PL)
Szczegóły torrenta
Trackerhttp://tracker.filetracker.pl:8089/announce
Multitracker http://tracker.filetracker.pl:8089/announce
http://tracker.free-torrents.pl/announce
http://tracker.streettorrent.pl:80/announce
http://tracker.torrenty.org:6969/announce
http://tracker.aletorrenty.pl:2710/announce
http://tracker.pubt.net:2710/announce
http://94.228.192.98/announce
http://www.tlv.cc:7777/announce
http://tracker.torrenty.org:6969/announce
http://retracker.omsk.ru:2710/announce
http://tracker.immortaltorrent.pl/announce
udp://open.demonii.com:1337/announce
http://tracker.best-torrents.net:6969/announce
udp://torrent.gresille.org:80/announce
udp://9.rarbg.me:2710/announce
udp://eddie4.nl:6969/announce
udp://tracker.leechers-paradise.org:6969/announce
udp://tracker4.piratux.com:6969/announce
udp://www.eddie4.nl:6969/announce
udp://open.demonii.com:1337/announce
udp://tracker.openbittorrent.com:80/announce
udp://tracker.publicbt.com:80/announce
udp://ipv4.tracker.harry.lu:80/announce
udp://tracker.publicbt.com/announce
udp://shadowshq.eddie4.nl:6969/announce
udp://9.rarbg.com:2710/announce
udp://11.rarbg.com:80/announce
udp://10.rarbg.com/announce
udp://tracker.istole.it:80/announce
udp://exodus.desync.com:6969
udp://open.demonii.com:1337/announce
udp://tracker.prq.to/announce

Kategoria:Filmy » DivX - XviD
Dodane06/11/2015 15:11:06
Ostatnie Uaktualnienie29/11/2015 17:56:07
Pokaż/Ukryj pliki:
5 plików
NIKT JESZCZE NIE DODAŁ KOMENTARZA

DODAJ KOMENTARZ
Więcej Emoticon



Wstecz

Żaden z opisanych na stronie plików nie jest przetrzymywany na serwerze. Administrator strony immortaltorrent.pl nie może ponieść konsekwencji prawnych za to co użytkownicy zamieszczają lub piszą na stronie.
Nie możesz używać tego serwisu do rozpowszechniania lub ściągania materiałów do których nie masz odpowiednich praw lub licencji. Użytkownicy zobowiązani są do przestrzeganie tych zasad.
Rejestracja konta jest jednoznaczna z akceptacją zasad.

2017 © immortaltorrent.pl


Najlepsze strony Torrentowe