Torrentów: 135279      Ranga: Gość               Stwórz konto Odzyskiwanie hasła


Kategorie
Filmy
 ⇒ DivX - XviD
 ⇒ RMVB
 ⇒ DVD-R
 ⇒ TV + Seriale
 ⇒ HDTV-HD
 ⇒ VCD - SVCD
 ⇒ x 264
 ⇒  3D
Gry
 ⇒ Gry PC
 ⇒ Gry Konsole
 ⇒ xbox360
Muzyka
 ⇒ Muzyka
 ⇒ Teledyski/Koncerty
Książki - Komiksy
 ⇒ E-Booki + Audio
 ⇒ Komiksy
Inne
 ⇒ XXX
 ⇒ Dla Dzieci
 ⇒ Sport
 ⇒ Pozostałe - Różne
 ⇒ Manga - Anime
 ⇒ GSM - PDA
Aplikacje
 ⇒ Windows
 ⇒ Linux + Macintosh



Detale torrenta

Mr Robot [S01E03] [480p] [WEB-DL] [AC3] [XviD-torentup] [Lektor PL]
Kondycja:
Dodane: 28/10/2015
Rozmiar: 590.69 MB
Uploader: torentup

seed(ów): 2
leecher(ów): 8
Pobrane: 1





Ocena: N/A

Tytuł:Mr. Robot / Sezon 1 [2015] [Epizodów:10]
============================

=====================
INFO
================
Ocena:IMDB - 9.0/10 (74711), Filmweb - 8.4/10 (14640)
Gatunek: Dramat, Kryminał
Produkcja: USA
Stacja telewizyjna: Network
Data premiery serialu: 24.05.2015 - Świat
Czas trwania odcinka około 47 min.
Twórcy: Sam Esmail

http://filmweb.pl/serial/Mr.+Robot-2015-733795
http://naekranie.pl/seriale/mr-robot
http://fdb.pl/film/670597-mr-robot
http://imdb.com/title/tt4158110/
https://www.youtube.com/watch?v=U94litUpZuc


=====================
OPIS
====================

Bohaterem serialu jest Elliot Alderson - młody, aspołeczny haker nastawiony negatywnie do wielkich korporacji. Jego choroba na tle psychicznym znacznie utrudnia kontakty interpersonalne. Najłatwiejszą drogę do "kontaktu" z ludźmi bohater odnajduje w hakowaniu ich. Przez swoje umiejętności, stanowisko specjalisty ds. bezpieczeństwa w firmie AllSafe oraz nastawienie do świata wzbudza zainteresowanie fsociety - podziemnej grupy anarchistycznych black hat hakerów. Przez taki obrót spraw bohater za dnia jest niewyróżniającym się pracownikiem korporacji, a w nocy hakerem walczącym o wolność społeczeństwa.

=====================
OBSADA
====================

★ Rami Malek .... Elliot Alderson
★ Christian Slater .... Pan Robot
★ Portia Doubleday .... Angela Moss
★ Carly Chaikin .... Darlene
★ Martin Wallström .... Tyrell Wellick
★ Michael Gill .... Gideon Goddard
★ Ben Rappaport .... Ollie Parker
★ Aaron Takahashi .... Lloyd Chung

=====================
DANE TECHNICZNE
=====================
Format                         : AVI
Format/Info                    : Audio Video Interleave
File size                      : 519 MiB
Duration                       : 1h 4mn
Overall bit rate               : 1 117 Kbps
Writing application            : Lavf56.1.100

Video
ID                             : 0
Format                         : MPEG-4 Visual
Format profile                 : Simple@L1
Format settings, BVOP          : No
Format settings, QPel          : No
Format settings, GMC           : No warppoints
Format settings, Matrix        : Default (H.263)
Codec ID                       : XVID
Codec ID/Hint                  : XviD
Duration                       : 1h 4mn
Bit rate                       : 976 Kbps
Width                          : 624 pixels
Height                         : 352 pixels
Display aspect ratio           : 16:9
Original display aspect ratio  : 16:9
Frame rate                     : 23.976 fps
Color space                    : YUV
Chroma subsampling             : 4:2:0
Bit depth                      : 8 bits
Scan type                      : Progressive
Compression mode               : Lossy
Bits/(Pixel*Frame)             : 0.185
Stream size                    : 454 MiB (87%)
Writing library                : Lavc56.0.101

Audio
ID                             : 1
Format                         : MPEG Audio
Format version                 : Version 1
Format profile                 : Layer 3
Mode                           : Joint stereo
Codec ID                       : 55
Codec ID/Hint                  : MP3
Duration                       : 1h 4mn
Bit rate mode                  : Constant
Bit rate                       : 128 Kbps
Channel(s)                     : 2 channels
Sampling rate                  : 48.0 KHz
Compression mode               : Lossy
Stream size                    : 59.5 MiB (11%)
Alignment                      : Aligned on interleaves
Interleave, duration           : 24 ms (0.58 video frame)
Interleave, preload duration   : 72 ms

Podobne torrenty
[TV + Seriale] Mr Robot [S01E01] [480p] [WEB-DL] [AC3] [XviD-torentup] [Lektor PL]
[TV + Seriale] Mr Robot [S01E04] [480p] [WEB-DL] [AC3] [XviD-torentup] [Lektor PL]
[TV + Seriale] Doktor House - S01E03 (2004) [DVDRip XviD-torentup] [Lektor PL]
[TV + Seriale] Wielkie kłamstewka - Big Little Lies Somebody\'s Dead (2017) [S01E03] [720p] [HDTV] [XViD] [AC3-torentup] [Lektor PL]
[DivX - XviD] Ja, Robot - I Robot *2004* [DVDRip.XviD-Złośnicaa][Lektor PL]
[TV + Seriale] Awantura o Basię S01E03 *1995* [TVRip.Xvid-torentup] [AC3] [Film PL]
[RMVB] Robot Jox 1: Bezlitośni mordercy - Robot Jox *1990* [DVDRip.RMVB] [Lektor PL]
[RMVB] I, Robot - Ja Robot *2004* [DVDRip.RMVB] [Lektor PL]
[DVD-R] Ja, Robot - I, Robot *2004* [DVD9] [Lektor i Napisy PL]
[TV + Seriale] Mr.Robot *2016* S02E01 [480p.WEB-DL.XviD.AC3-H3Q] [Napisy PL]
Szczegóły torrenta
Trackerhttp://tracker.filetracker.pl:8089/announce
Multitracker http://tracker.filetracker.pl:8089/announce
http://tracker.free-torrents.pl/announce
http://tracker.streettorrent.pl:80/announce
http://tracker.torrenty.org:6969/announce
http://tracker.aletorrenty.pl:2710/announce
http://tracker.pubt.net:2710/announce
http://94.228.192.98/announce
http://www.tlv.cc:7777/announce
http://tracker.torrenty.org:6969/announce
http://retracker.omsk.ru:2710/announce
http://tracker.immortaltorrent.pl/announce
udp://open.demonii.com:1337/announce
http://tracker.best-torrents.net:6969/announce
udp://torrent.gresille.org:80/announce
udp://9.rarbg.me:2710/announce
udp://eddie4.nl:6969/announce
udp://tracker.leechers-paradise.org:6969/announce
udp://tracker4.piratux.com:6969/announce
udp://www.eddie4.nl:6969/announce
udp://open.demonii.com:1337/announce
udp://tracker.openbittorrent.com:80/announce
udp://tracker.publicbt.com:80/announce
udp://ipv4.tracker.harry.lu:80/announce
udp://tracker.publicbt.com/announce
udp://shadowshq.eddie4.nl:6969/announce
udp://9.rarbg.com:2710/announce
udp://11.rarbg.com:80/announce
udp://10.rarbg.com/announce
udp://tracker.istole.it:80/announce
udp://exodus.desync.com:6969
udp://open.demonii.com:1337/announce
udp://tracker.prq.to/announce

Kategoria:Filmy » TV + Seriale
Dodane28/10/2015 15:10:40
Ostatnie Uaktualnienie28/10/2015 21:19:14
Pokaż/Ukryj pliki:
5 plików
NIKT JESZCZE NIE DODAŁ KOMENTARZA

DODAJ KOMENTARZ
Więcej Emoticon



Wstecz

Żaden z opisanych na stronie plików nie jest przetrzymywany na serwerze. Administrator strony immortaltorrent.pl nie może ponieść konsekwencji prawnych za to co użytkownicy zamieszczają lub piszą na stronie.
Nie możesz używać tego serwisu do rozpowszechniania lub ściągania materiałów do których nie masz odpowiednich praw lub licencji. Użytkownicy zobowiązani są do przestrzeganie tych zasad.
Rejestracja konta jest jednoznaczna z akceptacją zasad.

2017 © immortaltorrent.pl


Najlepsze strony Torrentowe