Torrentów: 139391      Ranga: Go               Stwórz konto Odzyskiwanie hasła


Kategorie
Filmy
 ⇒ DivX - XviD
 ⇒ RMVB
 ⇒ DVD-R
 ⇒ TV + Seriale
 ⇒ HDTV-HD
 ⇒ VCD - SVCD
 ⇒ x 264
 ⇒  3D
Gry
 ⇒ Gry PC
 ⇒ Gry Konsole
 ⇒ xbox360
Muzyka
 ⇒ Muzyka
 ⇒ Teledyski/Koncerty
Książki - Komiksy
 ⇒ E-Booki + Audio
 ⇒ Komiksy
Inne
 ⇒ XXX
 ⇒ Dla Dzieci
 ⇒ Sport
 ⇒ Pozostałe - Różne
 ⇒ Manga - Anime
 ⇒ GSM - PDA
Aplikacje
 ⇒ Windows
 ⇒ Linux + Macintosh



Detale torrenta

Wakacje Jasia Fasoli-Mr. Bean\'s Holiday (2007) [DVDRip][XviD-torentup] [Lektor PL]
Kondycja:
Dodane: 13/09/2015
Rozmiar: 699.15 MB
Uploader: torentup

seed(ów): 1
leecher(ów): 0
Pobrane: 10





Ocena: N/A


Gatunek: ............ - Familijny, Komedia
Produkcja: .......... - Francja,  Niemcy,  Wielka Brytania
Premiera: ........... - 20 kwietnia 2007 (Polska)   22 marca 2007 (wiat)
Czas trwania: ....... -  n/n
Ocena Filmweb: ...... - 6,7 /10
Reyseria: .......... - Steve Bendelack
Scenariusz: ......... - Robin Driscoll, Hamish McColl


..:: LINK ::..



Ja Fasola wybiera si na letni wypoczynek na poudnie Francji. Bardzo szybko podr na soneczn Rivier zmienia si w pasmo niepowodze. Niekonwencjonalne podejcie do spoywania owocw morza czy pomylenie takswek to dla Jasia rzecz normalna. A w dodatku wpltuje si w porwanie nieletniej osoby, zwycia hitlerowskie wojsko oraz prezentuje swj film (co nie byo planowane) na gali w Cannes. Czy moe by gorzej (mieszniej)?


Rowan Atkinson........... - Ja Fasola
Max Baldry............... - Stiepan
Emma de Caunes........... - Sabine
Willem Dafoe............. - Carson Clay
Jean Rochefort........... - Kelner
Clint Dyer............... - Luther
Karel Roden.............. - Emil Duszewski
Stphane Debac.... - Kontroler ruchu drogowego




Format                         : AVI
Format/Info                    : Audio Video Interleave
File size                      : 699 MiB
Duration                       : 1h 25mn
Overall bit rate mode          : Variable
Overall bit rate               : 1 137 Kbps
Writing application            : VirtualDubMod 1.5.10.2 (build 2540/release)
Writing library                : VirtualDubMod build 2540/release

Video
ID                             : 0
Format                         : MPEG-4 Visual
Format profile                 : Advanced Simple@L5
Format settings, BVOP          : Yes
Format settings, QPel          : No
Format settings, GMC           : No warppoints
Format settings, Matrix        : Default (H.263)
Codec ID                       : XVID
Codec ID/Hint                  : XviD
Duration                       : 1h 25mn
Bit rate                       : 994 Kbps
Width                          : 640 pixels
Height                         : 336 pixels
Display aspect ratio           : 1.905
Frame rate                     : 25.000 fps
Color space                    : YUV
Chroma subsampling             : 4:2:0
Bit depth                      : 8 bits
Scan type                      : Progressive
Compression mode               : Lossy
Bits/(Pixel*Frame)             : 0.185
Stream size                    : 611 MiB (87%)
Writing library                : XviD 1.1.2 (UTC 2006-11-01)

Audio
ID                             : 1
Format                         : MPEG Audio
Format version                 : Version 1
Format profile                 : Layer 3
Mode                           : Joint stereo
Codec ID                       : 55
Codec ID/Hint                  : MP3
Duration                       : 1h 25mn
Bit rate mode                  : Variable
Bit rate                       : 132 Kbps
Channel(s)                     : 2 channels
Sampling rate                  : 48.0 KHz
Compression mode               : Lossy
Stream size                    : 79.9 MiB (11%)
Alignment                      : Aligned on interleaves
Interleave, duration           : 24 ms (0.60 video frame)
Interleave, preload duration   : 141 ms
Writing library                : LAME3.90.
Encoding settings              : -m j -V 4 -q 2 -lowpass 17.6 --abr 132



Podobne torrenty
[DivX - XviD] Wakacje Jasia Fasoli - Mr. Bean's Holiday *2007* [DVDRip] [XviD] [Lektor PL]
[DivX - XviD] Wakacje Jasia Fasoli - Mr. Bean's Holiday *2007* [DVDRip.XviD] [Lektor PL]
[DivX - XviD] Wakacje Jasia Fasoli - Mr. Bean\'s Holiday *2007* [DVDRip] [XviD] [Napisy PL]
[x 264] Wakacje Jasia Fasoli - Mr. Bean's Holiday (2007) [HDDVDRip.x264] [ENG]
[Dla Dzieci] Wakacje z Timonem i Pumb - On Holiday with Timon and Pumbaa *1995* [DVDRip.XviD] [Dub PL]
[Dla Dzieci] Wakacje z Timonem i Pumb - On Holiday with Timon and Pumbaa *2003* [DVDrip.Xvid] [Dubbing PL]
[DivX - XviD] Rzymskie wakacje - Roman Holiday *1953* [DVDRip.DivX]
[DivX - XviD] Mr Beans Holiday [2007] [DVDRip.XviD] [Lektor PL]
[Gry PC] Mexicana: miertelne wakacje(Mexicana: Deadly Holiday)*2014*[PL-P2P][EXE]
[DivX - XviD] The Perfect Holiday 2007 [DVDRip.XviD]
Szczegóły torrenta
Trackerudp://tracker.openbittorrent.com:80/announce
Multitracker udp://tracker.openbittorrent.com:80/announce
udp://tracker.publicbt.com:80/announce
http://tracker.torrenty.org:6969/announce
http://tracker.filetracker.pl:8089/announce
http://tracker.aletorrenty.pl:2710/announce
udp://tracker.aletorrenty.pl:2710/announce
http://94.228.192.98/announce
udp://open.demonii.com:1337
udp://9.rarbg.com:2710/announce
udp://11.rarbg.com:80/announce
http://www.tlv.cc:7777/announce
http://tracker.ex.ua:80/announce
http://tracker.nwps.ws:6969/announce
http://announce.torrentsmd.com:6969/announce
udp://10.rarbg.com/announce
udp://tracker.istole.it:80/announce
udp://exodus.desync.com:6969
udp://exodus.desync.com:6969/announce
udp://tracker.publicbt.com:80/announce
udp://tracker.token.ro:80/announce
udp://castradio.net:6969/announce
udp://ipv4.tracker.harry.lu:80/announce
udp://tracker.prq.to:80/announce
udp://tracker.openbittorrent.com:80/announce
http://tracker.ex.ua:80/announce
udp://tracker.istole.it:80
udp://tracker.ilibr.org:6969/announce
udp://tracker.openbittorrent.com:80
http://tracker.filetracker.pl:8089/announce
http://exodus.desync.com:6969/announce
udp://tracker.prq.to:80/announce
http://tracker.ex.ua:80/announce
udp://tracker.istole.it:80
udp://tracker.ilibr.org:6969/announce
http://tracker.torrenty.org:6969/announce
udp://tracker.publicbt.com/announce
udp://openbittorrent.com:80
udp://9.rarbg.com:2710/announce
udp://t1.pow7.com/announce
udp://tracker.torrentbay.to:6969/announce
udp://tracker.prq.to/announce
udp://tracker.istole.it:80/announce
udp://exodus.desync.com:6969/announce
udp://exodus.desync.com:6969/announce
http://tracker.torrenty.org:6969/announce
http://free-torrents.org/bt/announce.php?uk=KMAQBe0sF1&
http://retracker.local/announce
http://10.rarbg.com:80/announce
http://360.kicks-ass.org/announce.php
http://64.62.145.163:6969/announce
http://alt.bitworld.to/announce.php
http://anvilofsound.com/announce
http://arcoiris.argonet.hu/announce.php
http://bithq.org/announce.php
http://bit-pit.com/announce.php
http://bittorrent.dyndns.org:6969/announce
http://bootcity.org:2710/announce
http://bt.edwardk.info:6969/announce
http://bt.go2id.net/announce.php
http://bt.moviehub.info/announce.php

Kategoria:Filmy » DivX - XviD
Dodane13/09/2015 22:09:28
Ostatnie Uaktualnienie20/09/2015 09:21:38
Pokaż/Ukryj pliki:
4 plików
NIKT JESZCZE NIE DODAŁ KOMENTARZA

DODAJ KOMENTARZ
Więcej Emoticon



Wstecz

Żaden z opisanych na stronie plików nie jest przetrzymywany na serwerze. Administrator strony immortaltorrent.pl nie może ponieść konsekwencji prawnych za to co użytkownicy zamieszczają lub piszą na stronie.
Nie możesz używać tego serwisu do rozpowszechniania lub ściągania materiałów do których nie masz odpowiednich praw lub licencji. Użytkownicy zobowiązani są do przestrzeganie tych zasad.
Rejestracja konta jest jednoznaczna z akceptacją zasad.

2018 © immortaltorrent.pl


Najlepsze strony Torrentowe