Torrentów: 134560      Ranga: Gość               Stwórz konto Odzyskiwanie hasła


Kategorie
Filmy
 ⇒ DivX - XviD
 ⇒ RMVB
 ⇒ DVD-R
 ⇒ TV + Seriale
 ⇒ HDTV-HD
 ⇒ VCD - SVCD
 ⇒ x 264
 ⇒  3D
Gry
 ⇒ Gry PC
 ⇒ Gry Konsole
 ⇒ xbox360
Muzyka
 ⇒ Muzyka
 ⇒ Teledyski/Koncerty
Książki - Komiksy
 ⇒ E-Booki + Audio
 ⇒ Komiksy
Inne
 ⇒ XXX
 ⇒ Dla Dzieci
 ⇒ Sport
 ⇒ Pozostałe - Różne
 ⇒ Manga - Anime
 ⇒ GSM - PDA
Aplikacje
 ⇒ Windows
 ⇒ Linux + Macintosh



Detale torrenta

Białe Boże Narodzenie-White Christmas (1954) [BRRip 1080p.x264 by alE13.DTS-MA/Core/AC3][Lektor i Napisy PL][Eng]
Kondycja:
Dodane: 24/12/2016
Rozmiar: 8.87 GB
Uploader: alE13

seed(ów): 4
leecher(ów): 7
Pobrane: 2





Ocena: N/A



http://www.imdb.com/title/tt0047673/
http://www.filmweb.pl/film/Bia%C5%82e+Bo%C5%BCe+Narodzenie-1954-11630

Życzę Wam: Miłych i Spokojnych Świąt w ten tak Szczególny Dzień.
Merry Christmas for Everyone.


gatunek: Komedia,Musical,Romans
produkcja: USA
premiera: 14-10-1954
reżyseria: Michael Curtiz
scenariusz: Norman Panama,Norman Krasna,Melvin Frank
muzyka:         Joseph J. Lilley, Van Cleave
zdjęcia:        Loyal Griggs
czas:           02:00:01

opis:

A successful song-and-dance team become romantically involved with a sister act and team up to save
the failing Vermont inn of their former commanding general.

Film opowiada historię dwóch utalentowanych piosenkarzy (Bing Crosby i Danny Kaye), którzy po
zakończeniu II wojny światowej łączą swe siły, by stać się rewelacją sezonu. Kolejnej zimy dołącza do nich
żeński duet (Rosemary Clooney i Vera-Ellen), z którymi wyruszają na wielkie świąteczne tournee do Vermont.
Wspólna podróż obfituje w masę komediowych perypetii, ale prawdziwa przygoda rozpoczyna się na miejscu.
Crosby i Kaye odkrywają, ze lokal, w którym mają występować należy do ich dawnego dowódcy wojskowego,
przeżywającego obecnie poważne problemy finansowe. Rezultaty ich zabiegów przerosną najśmielsze marzenia
grupki przyjaciół.

http://i.imgur.com/SRlJPVh.jpg
http://i.imgur.com/XEkHQjY.jpg
http://i.imgur.com/h3awm5Z.jpg
http://i.imgur.com/zjWXKZ6.jpg

obsada:

Bing Crosby, Danny Kaye, Rosemary Clooney

dane techniczne:

White Christmas (1954)-alE13.mkv
Format                      : Matroska
Format version              : Version 4 / Version 2
File size                   : 8.76 GiB
Duration                    : 2 h 0 min
Overall bit rate            : 10.4 Mb/s
Movie name                  : sample
Encoded date                : UTC 2016-12-24 11:27:49
Writing application         : mkvmerge v8.1.0 ('Psychedelic Postcard') 64bit
Writing library             : libebml v1.3.1 + libmatroska v1.4.2
Cover                       : Yes
Attachments                 : txt.jpg / cover.jpg / txt.jpg

Video
ID                          : 1
Format                      : AVC
Format/Info                 : Advanced Video Codec
Format profile              : High@L4.1
Format settings, CABAC      : Yes
Format settings, ReFrames   : 2 frames
Codec ID                    : V_MPEG4/ISO/AVC
Duration                    : 2 h 0 min
Bit rate                    : 6 662 kb/s
Width                       : 1 920 pixels
Height                      : 1 080 pixels
Display aspect ratio        : 16:9
Frame rate mode             : Constant
Frame rate                  : 23.976 (24000/1001) FPS
Color space                 : YUV
Chroma subsampling          : 4:2:0
Bit depth                   : 8 bits
Scan type                   : Progressive
Bits/(Pixel*Frame)          : 0.134
Stream size                 : 5.58 GiB (64%)
Title                       : White Christmas (1954)-alE13
Writing library             : x264 core 142
Default                     : Yes
Forced                      : No
Color range                 : Limited
Color primaries             : BT.709
Transfer characteristics    : BT.709
Matrix coefficients         : BT.709

Audio #1
ID                          : 2
Format                      : DTS
Format/Info                 : Digital Theater Systems
Format profile              : MA / Core
Mode                        : 16
Format settings, Endianness : Big
Codec ID                    : A_DTS
Duration                    : 2 h 0 min
Bit rate mode               : Variable / Constant
Bit rate                    : 3 397 kb/s / 1 509 kb/s
Channel(s)                  : 6 channels
Channel positions           : Front: L C R, Side: L R, LFE
Sampling rate               : 48.0 kHz
Frame rate                  : 93.750 FPS (512 spf)
Bit depth                   : 24 bits
Compression mode            : Lossless / Lossy
Stream size                 : 2.85 GiB (33%)
Title                       : White Christmas (1954)-alE13_DTS-HD-MA/Core @ 1509 Kbps_5.1 ch.
Language                    : English
Default                     : No
Forced                      : No

Audio #2
ID                          : 3
Format                      : AC-3
Format/Info                 : Audio Coding 3
Mode extension              : CM (complete main)
Format settings, Endianness : Big
Codec ID                    : A_AC3
Duration                    : 1 h 59 min
Bit rate mode               : Constant
Bit rate                    : 384 kb/s
Channel(s)                  : 2 channels
Channel positions           : Front: L R
Sampling rate               : 48.0 kHz
Frame rate                  : 31.250 FPS (1536 spf)
Bit depth                   : 16 bits
Compression mode            : Lossy
Delay relative to video     : 1 s 910 ms
Stream size                 : 329 MiB (4%)
Title                       : White Christmas (1954)-alE13_AC3 @ 256 Kbps_Audio from VHS
Language                    : Polish
Default                     : Yes
Forced                      : No

Text #1
ID                          : 4
Format                      : UTF-8
Codec ID                    : S_TEXT/UTF8
Codec ID/Info               : UTF-8 Plain Text
Duration                    : 1 h 59 min
Bit rate                    : 68 b/s
Count of elements           : 1392
Stream size                 : 60.3 KiB (0%)
Title                       : White Christmas (1954)-alE13
Language                    : Polish
Default                     : Yes
Forced                      : No

Text #2
ID                          : 5
Format                      : UTF-8
Codec ID                    : S_TEXT/UTF8
Codec ID/Info               : UTF-8 Plain Text
Duration                    : 1 h 59 min
Bit rate                    : 88 b/s
Count of elements           : 1817
Stream size                 : 77.7 KiB (0%)
Title                       : White Christmas (1954)-alE13
Language                    : English
Default                     : No
Forced                      : No

Menu
00:00:00.000                : :00:00:00.000
00:08:54.367                : :00:08:54.367
00:14:18.691                : :00:14:18.691
00:27:00.452                : :00:27:00.452
00:31:41.817                : :00:31:41.817
00:38:26.471                : :00:38:26.471
00:44:23.494                : :00:44:23.494
00:49:15.953                : :00:49:15.953
00:53:49.685                : :00:53:49.685
01:00:59.656                : :01:00:59.656
01:11:46.344                : :01:11:46.344
01:15:37.992                : :01:15:37.992
01:21:10.115                : :01:21:10.115
01:31:25.480                : :01:31:25.480
01:35:22.133                : :01:35:22.133
01:41:02.974                : :01:41:02.974
01:45:52.346                : :01:45:52.346
01:52:14.728                : :01:52:14.728
01:55:13.198                : :01:55:13.198
Podobne torrenty
[DivX - XviD] Bajkowe Boże Narodzenie - A Princess for Christmas *2011* [DVDRip.XviD] [Lektor PL]
[HDTV-HD] Noc nad Pacyfikiem-The High and the Mighty (1954)[WEBRip 1080p x264 by alE13 AC3][Napisy PL/Eng][Eng]
[HDTV-HD] Samotny Wilk i Szczenię-Lone Wolf & Cub- White Heaven in Hell (1974)[BRRip 1080p x264 by alE13 AC3/FLAC][Napisy PL/Eng][Jap]
[Dla Dzieci] Pierwsze Boże Narodzenie Misia Yogi Yogi s First Christmas 1980 [VHSRip.RMVB] [Lektor PL]
[HDTV-HD] Okno na podwórze-Rear Window (1954)[BDRip 1080p by alE13 AC3/DTS][Lektor i Napisy PL/Eng][Eng]
[HDTV-HD] Roy Orbison & Friends: Black and White Night (1988)[BRRip 1080p x264 by alE13 DTS/AC3][Eng]
[HDTV-HD] Coś-The Thing (1982)[BRRip 1080p x264 by alE13 AC3][Lektor i Napisy PL/Eng][Eng]
[HDTV-HD] Gladiator(2000)[BRRip 1080p x264 by alE13 AC3][Lektor i Napisy PL/Eng][Eng]
[HDTV-HD] Centurion (2010)[BRRip 1080p x264 by alE13 DTS/AC3][Lektor i Napisy PL/Eng][Eng]
[HDTV-HD] Bez wyjścia-No Way Out (1987)[BRRip 1080p x264 by alE13 AC3][Lektor i Napisy PL/Eng][Eng]
Szczegóły torrenta
Trackerhttp://auratorrent.pl:8089/announce
Multitracker http://auratorrent.pl:8089/announce
http://pow7.com:80/announce
http://pow7.com/announce
http://tracker.tfile.me/announce
http://retracker.omsk.ru:2710/announce
http://mgtracker.org:2710/announce
udp://tracker.leechers-paradise.org:6969/announce
http://mgtracker.org:2710/announce
http://pow7.com:80/announce
http://pow7.com/announce
http://tracker.torrentyorg.pl/announce
udp://inferno.demonoid.ooo:3392/announce
udp://inferno.demonoid.pw:3393/announce
udp://tracker.coppersurfer.tk:6969/announce

Kategoria:Filmy » HDTV-HD
Dodane24/12/2016 13:12:26
Ostatnie Uaktualnienie25/12/2016 07:50:39
Pokaż/Ukryj pliki:
33 plików
NIKT JESZCZE NIE DODAŁ KOMENTARZA

DODAJ KOMENTARZ
Więcej Emoticon



Wstecz

Żaden z opisanych na stronie plików nie jest przetrzymywany na serwerze. Administrator strony immortaltorrent.pl nie może ponieść konsekwencji prawnych za to co użytkownicy zamieszczają lub piszą na stronie.
Nie możesz używać tego serwisu do rozpowszechniania lub ściągania materiałów do których nie masz odpowiednich praw lub licencji. Użytkownicy zobowiązani są do przestrzeganie tych zasad.
Rejestracja konta jest jednoznaczna z akceptacją zasad.

2017 © immortaltorrent.pl


Najlepsze strony Torrentowe