Torrentów: 135275      Ranga: Go¶ć               Stwórz konto Odzyskiwanie hasła


Kategorie
Filmy
 ⇒ DivX - XviD
 ⇒ RMVB
 ⇒ DVD-R
 ⇒ TV + Seriale
 ⇒ HDTV-HD
 ⇒ VCD - SVCD
 ⇒ x 264
 ⇒  3D
Gry
 ⇒ Gry PC
 ⇒ Gry Konsole
 ⇒ xbox360
Muzyka
 ⇒ Muzyka
 ⇒ Teledyski/Koncerty
Ksi±żki - Komiksy
 ⇒ E-Booki + Audio
 ⇒ Komiksy
Inne
 ⇒ XXX
 ⇒ Dla Dzieci
 ⇒ Sport
 ⇒ Pozostałe - Różne
 ⇒ Manga - Anime
 ⇒ GSM - PDA
Aplikacje
 ⇒ Windows
 ⇒ Linux + Macintosh



Detale torrenta

Lotnik-The Aviator (1985)[BRRip 1080p x264 by alE13 AC3/DTS][Lektor i Napisy PL/Eng][Eng]
Kondycja:
Dodane: 03/06/2017
Rozmiar: 7.76 GB
Uploader: alE13

seed(ów): 1
leecher(ów): 0
Pobrane: 0





Ocena: N/A



http://www.imdb.com/title/tt0088758/
http://www.filmweb.pl/film/Lotnik-1985-10167

Plik zawiera Sample.

reżyseria: George Miller
scenariusz: Marc Norman
gatunek: Dramat, Przygodowy
produkcja: USA
premiera: 01-03-1985
muzyka:         Dominic Frontiere
zdjęcia:        David Connell
czas:           1h 36 min

opis:

A 1920s mail pilot and a rich man's daughter crash-land on a mountain full of hungry wolves.

Jest to typowa historia o pragnieniu przeżycia. Akcja toczy się w górach, w których to rozbija
się samolot z dwoma osobami na pokładzie. S± to pilot awionetki i młoda córka bogacza. Udaje im
się przeżyć, ale góry s± pełne wygłodniałych wilków. Tillie Hansen (R. Arquette) i Edgar Anscombe
(Christopher Reeve) musz± ze sob± współpracować a ciężki charakter dziewczyny wcale w tym nie pomaga.

http://i.imgur.com/ZPTJFWb.jpg
http://i.imgur.com/KgkYOre.jpg
http://i.imgur.com/8EvrmD6.jpg
http://i.imgur.com/FCv46N5.jpg

obsada:

Christopher Reeve, Rosanna Arquette, Jack Warden

dane techniczne:

The Aviator (1985)-alE13.mkv
Format                      : Matroska
Format version              : Version 4 / Version 2
File size                   : 7.71 GiB
Duration                    : 1 h 36 min
Overall bit rate            : 11.4 Mb/s
Movie name                  : The Aviator (1985)-alE13
Encoded date                : UTC 2017-06-03 06:48:18
Writing application         : mkvmerge v8.1.0 ('Psychedelic Postcard') 64bit
Writing library             : libebml v1.3.1 + libmatroska v1.4.2
Cover                       : Yes
Attachments                 : cover.jpg

Video
ID                          : 1
Format                      : AVC
Format/Info                 : Advanced Video Codec
Format profile              : High@L4.1
Format settings, CABAC      : Yes
Format settings, ReFrames   : 2 frames
Codec ID                    : V_MPEG4/ISO/AVC
Duration                    : 1 h 36 min
Bit rate                    : 9 240 kb/s
Width                       : 1 920 pixels
Height                      : 1 040 pixels
Display aspect ratio        : 1.85:1
Frame rate mode             : Constant
Frame rate                  : 23.976 (24000/1001) FPS
Color space                 : YUV
Chroma subsampling          : 4:2:0
Bit depth                   : 8 bits
Scan type                   : Progressive
Bits/(Pixel*Frame)          : 0.193
Stream size                 : 6.25 GiB (81%)
Title                       : The Aviator (1985)-alE13
Writing library             : x264 core 142
Default                     : Yes
Forced                      : No
Color range                 : Limited
Color primaries             : BT.709
Transfer characteristics    : BT.709
Matrix coefficients         : BT.709

Audio #1
ID                          : 2
Format                      : AC-3
Format/Info                 : Audio Coding 3
Mode extension              : CM (complete main)
Format settings, Endianness : Big
Codec ID                    : A_AC3
Duration                    : 1 h 36 min
Bit rate mode               : Constant
Bit rate                    : 384 kb/s
Channel(s)                  : 2 channels
Channel positions           : Front: L R
Sampling rate               : 48.0 kHz
Frame rate                  : 31.250 FPS (1536 spf)
Compression mode            : Lossy
Stream size                 : 266 MiB (3%)
Title                       : The Aviator (1985)-alE13_AC3
Language                    : English
Default                     : No
Forced                      : No

Audio #2
ID                          : 3
Format                      : DTS
Format/Info                 : Digital Theater Systems
Mode                        : 16
Format settings, Endianness : Big
Codec ID                    : A_DTS
Duration                    : 1 h 36 min
Bit rate mode               : Constant
Bit rate                    : 1 509 kb/s
Channel(s)                  : 2 channels
Channel positions           : Front: L R
Sampling rate               : 48.0 kHz
Frame rate                  : 93.750 FPS (512 spf)
Bit depth                   : 24 bits
Compression mode            : Lossy
Stream size                 : 1.02 GiB (13%)
Title                       : The Aviator (1985)-alE13_DTS
Language                    : English
Default                     : No
Forced                      : No

Audio #3
ID                          : 4
Format                      : AC-3
Format/Info                 : Audio Coding 3
Mode extension              : CM (complete main)
Format settings, Endianness : Big
Codec ID                    : A_AC3
Duration                    : 1 h 36 min
Bit rate mode               : Constant
Bit rate                    : 256 kb/s
Channel(s)                  : 2 channels
Channel positions           : Front: L R
Sampling rate               : 48.0 kHz
Frame rate                  : 31.250 FPS (1536 spf)
Compression mode            : Lossy
Delay relative to video     : 22 s 0 ms
Stream size                 : 177 MiB (2%)
Title                       : The Aviator (1985)-alE13_AC3
Language                    : Polish
Default                     : Yes
Forced                      : No

Text
ID                          : 5
Format                      : UTF-8
Codec ID                    : S_TEXT/UTF8
Codec ID/Info               : UTF-8 Plain Text
Duration                    : 1 h 33 min
Bit rate                    : 43 b/s
Count of elements           : 714
Stream size                 : 29.8 KiB (0%)
Title                       : The Aviator (1985)-alE13_AC3
Language                    : English
Default                     : Yes
Forced                      : No

Menu
00:00:00.000                : en:00:00:00.000
00:05:13.813                : en:00:05:13.813
00:14:37.126                : en:00:14:37.126
00:24:45.109                : en:00:24:45.109
00:31:35.977                : en:00:31:35.977
00:41:53.261                : en:00:41:53.261
00:49:59.163                : en:00:49:59.163
00:58:23.333                : en:00:58:23.333
01:07:42.809                : en:01:07:42.809
01:15:25.771                : en:01:15:25.771
01:22:58.599                : en:01:22:58.599
01:31:02.040                : en:01:31:02.040
Podobne torrenty
[HDTV-HD] Skowyt 2-Howling II Stirba:... Werewolf Bitch (1985)[BRRip 1080p by alE13 AC3][Lektor i Napisy Eng][Eng]
[HDTV-HD] Co¶-The Thing (1982)[BRRip 1080p x264 by alE13 AC3][Lektor i Napisy PL/Eng][Eng]
[HDTV-HD] Gladiator(2000)[BRRip 1080p x264 by alE13 AC3][Lektor i Napisy PL/Eng][Eng]
[HDTV-HD] Centurion (2010)[BRRip 1080p x264 by alE13 DTS/AC3][Lektor i Napisy PL/Eng][Eng]
[HDTV-HD] Bez wyj¶cia-No Way Out (1987)[BRRip 1080p x264 by alE13 AC3][Lektor i Napisy PL/Eng][Eng]
[HDTV-HD] Equilibrium (2002)[BRRip 1080p x264 by alE13 AC3][Lektor i Napisy PL/Eng][Eng]
[HDTV-HD] Sissi (1955)[BRRip 1080p x264 by alE13 AC3/DTS][Lektor i Napisy PL/Eng/Ger][Ger]
[HDTV-HD] Rewolucja-Revolution (1985)[BDRip 1080p x264 by alE13 AC3/DTS][Lektor][Eng]
[HDTV-HD] 100 Karabinów-100 Rifles (1969) [BRRip 1080p x264 by alE13 AAC/DTS][Lektor i Napisy PL/Eng][Eng]
[HDTV-HD] Kleopatra-Cleopatra (1963)[BRRip 1080p x264 by alE13 AC3/DTS][Lektor i Napisy PL/Eng][Eng]
Szczegóły torrenta
Trackerhttp://tracker.devil-torrents.pl/announce
Multitracker http://tracker.devil-torrents.pl/announce
http://tracker.torrentyorg.pl/announce
udp://tracker.opentrackr.org:1337/announce
udp://tracker.leechers-paradise.org:6969/announce
udp://tracker.ilibr.org:80/announce
udp://tracker.coppersurfer.tk:6969/announce
udp://p4p.arenabg.ch:1337/announce
udp://inferno.demonoid.pw:3391/announce

Kategoria:Filmy » HDTV-HD
Dodane03/06/2017 09:06:26
Ostatnie Uaktualnienie03/06/2017 09:56:26
Pokaż/Ukryj pliki:
16 plików
NIKT JESZCZE NIE DODAŁ KOMENTARZA

DODAJ KOMENTARZ
Więcej Emoticon



Wstecz

Żaden z opisanych na stronie plików nie jest przetrzymywany na serwerze. Administrator strony immortaltorrent.pl nie może ponieść konsekwencji prawnych za to co użytkownicy zamieszczają lub piszą na stronie.
Nie możesz używać tego serwisu do rozpowszechniania lub ściągania materiałów do których nie masz odpowiednich praw lub licencji. Użytkownicy zobowiązani są do przestrzeganie tych zasad.
Rejestracja konta jest jednoznaczna z akceptacją zasad.

2017 © immortaltorrent.pl


Najlepsze strony Torrentowe