Torrentów: 134549      Ranga: Gość               Stwórz konto Odzyskiwanie hasła


Kategorie
Filmy
 ⇒ DivX - XviD
 ⇒ RMVB
 ⇒ DVD-R
 ⇒ TV + Seriale
 ⇒ HDTV-HD
 ⇒ VCD - SVCD
 ⇒ x 264
 ⇒  3D
Gry
 ⇒ Gry PC
 ⇒ Gry Konsole
 ⇒ xbox360
Muzyka
 ⇒ Muzyka
 ⇒ Teledyski/Koncerty
Książki - Komiksy
 ⇒ E-Booki + Audio
 ⇒ Komiksy
Inne
 ⇒ XXX
 ⇒ Dla Dzieci
 ⇒ Sport
 ⇒ Pozostałe - Różne
 ⇒ Manga - Anime
 ⇒ GSM - PDA
Aplikacje
 ⇒ Windows
 ⇒ Linux + Macintosh



Detale torrenta

Dzień Dobry TV - Morning Glory 2010 [DVDRip] [XviD-torentup] [Lektor PL]
Kondycja:
Dodane: 17/08/2016
Rozmiar: 705.79 MB
Uploader: torentup

seed(ów): 1
leecher(ów): 2
Pobrane: 0





Ocena: N/A

=====================
INFO
================

Gatunek: Dramat, Komedia, Romans
Produkcja: USA
Premiera: 25 marca 2011 (Polska) 10 listopada 2010 (świat)
Czas trwania: 1 godz. 47 min.
Reżyseria: Roger Michell
Scenariusz: Aline Brosh McKenna

=====================
OPIS
====================

Poranny program telewizyjny prowadzi para prezenterów- Mike Pomeroy (Harrison Ford) i Colleen Peck (Diane Keaton), którzy żywo się ze sobą sprzeczają. Nowa producentka Becky Fuller (Rachel McAdams) stara się podnieść oglądalność po*censored*dającego programu i w tym celu, pogodzić prowadzących.


=====================
OBSADA
====================

Rachel McAdams........... - Becky Fuller
Harrison Ford............ - Mike Pomeroy
Diane Keaton............. - Colleen Peck
Patrick Wilson........... - Adam Bennett
Jeff Goldblum............ - Jerry Barnes
John Pankow.............. - Lenny Bergman
Matt Malloy.............. - Ernie Appleby
Patti D'Arbanville....... - Mama Becky


=====================
DANE TECHNICZNE
=====================

Format                         : AVI
Format/Info                    : Audio Video Interleave
File size                      : 706 MiB
Duration                       : 1h 43mn
Overall bit rate mode          : Variable
Overall bit rate               : 957 Kbps
Writing application            : VirtualDubMod 1.5.10.2 (build 2540/release)
Writing library                : VirtualDubMod build 2540/release

Video
ID                             : 0
Format                         : MPEG-4 Visual
Format profile                 : Advanced Simple@L5
Format settings, BVOP          : 2
Format settings, QPel          : No
Format settings, GMC           : No warppoints
Format settings, Matrix        : Default (H.263)
Muxing mode                    : Packed bitstream
Codec ID                       : XVID
Codec ID/Hint                  : XviD
Duration                       : 1h 43mn
Bit rate                       : 832 Kbps
Width                          : 640 pixels
Height                         : 272 pixels
Display aspect ratio           : 2.35:1
Frame rate                     : 25.000 fps
Color space                    : YUV
Chroma subsampling             : 4:2:0
Bit depth                      : 8 bits
Scan type                      : Progressive
Compression mode               : Lossy
Bits/(Pixel*Frame)             : 0.191
Stream size                    : 614 MiB (87%)
Writing library                : XviD 1.1.0 (UTC 2005-11-22)

Audio
ID                             : 1
Format                         : MPEG Audio
Format version                 : Version 1
Format profile                 : Layer 3
Codec ID                       : 55
Codec ID/Hint                  : MP3
Duration                       : 1h 43mn
Bit rate mode                  : Variable
Bit rate                       : 112 Kbps
Channel(s)                     : 2 channels
Sampling rate                  : 48.0 KHz
Compression mode               : Lossy
Delay relative to video        : 984ms
Stream size                    : 82.6 MiB (12%)
Alignment                      : Split accross interleaves
Interleave, duration           : 24 ms (0.60 video frame)
Interleave, preload duration   : 1728 ms
Writing library                : LAME3.98r
Encoding settings              : -m s -V 4 -q 5 -lowpass 15.6 --abr 112

Podobne torrenty
[DivX - XviD] Dzień Dobry TV - Morning Glory *2010* [DVDRip.XviD] [Lektor PL]
[RMVB] Dzień Dobry TV - Morning Glory *2010* [DVDRip.RMVB] [Lektor PL]
[DivX - XviD] Dzień Dobry TV - Morning Glory *2010* [DVDRip.XviD] [Napisy PL]
[DVD-R] Dzień Dobry TV - Morning Glory (2010) [PAL.DVD5] [Lektor i Napisy PL]
[DivX - XviD] Morning Glory 2010 [DVDRiP.XViD]
[DivX - XviD] Morning Glory 2010 [DVDRip.XviD] [ENG]
[DivX - XviD] Morning Glory [DVDRip.XviD]
[DivX - XviD] Dzień dobry, kocham cię! *2014* [DVDRip] [XviD-Shadow][FILM POLSKI ]
[RMVB] Dobry Wojak Szwejk - Dobrý Voják Švejk *1957* [FS.DVDRip.RMVB] [Lektor PL]
[RMVB] Dzień Jak Co Dzień - Every Day *2010* [DVDRip.RMVB] [Lektor PL]
Szczegóły torrenta
Trackerhttp://tracker.filetracker.pl:8089/announce
Multitracker http://tracker.filetracker.pl:8089/announce
http://tracker.free-torrents.pl/announce
http://tracker.streettorrent.pl:80/announce
http://tracker.torrenty.org:6969/announce
http://tracker.aletorrenty.pl:2710/announce
http://tracker.pubt.net:2710/announce
http://94.228.192.98/announce
http://www.tlv.cc:7777/announce
http://retracker.omsk.ru:2710/announce
http://tracker.immortaltorrent.pl/announce
udp://open.demonii.com:1337/announce
http://tracker.best-torrents.net:6969/announce
udp://torrent.gresille.org:80/announce
udp://9.rarbg.me:2710/announce
udp://eddie4.nl:6969/announce
udp://tracker.leechers-paradise.org:6969/announce
udp://tracker4.piratux.com:6969/announce
udp://www.eddie4.nl:6969/announce
udp://tracker.openbittorrent.com:80/announce
udp://tracker.publicbt.com:80/announce
udp://ipv4.tracker.harry.lu:80/announce
udp://tracker.publicbt.com/announce
udp://shadowshq.eddie4.nl:6969/announce
udp://9.rarbg.com:2710/announce
udp://11.rarbg.com:80/announce
udp://10.rarbg.com/announce
udp://tracker.istole.it:80/announce
udp://exodus.desync.com:6969
udp://tracker.prq.to/announce
udp://tracker.openbittorrent.com:80/announce
udp://tracker.publicbt.com:80/announce

Kategoria:Filmy » DivX - XviD
Dodane17/08/2016 18:08:19
Ostatnie Uaktualnienie17/08/2016 18:31:37
Pokaż/Ukryj pliki:
5 plików
NIKT JESZCZE NIE DODAŁ KOMENTARZA

DODAJ KOMENTARZ
Więcej Emoticon



Wstecz

Żaden z opisanych na stronie plików nie jest przetrzymywany na serwerze. Administrator strony immortaltorrent.pl nie może ponieść konsekwencji prawnych za to co użytkownicy zamieszczają lub piszą na stronie.
Nie możesz używać tego serwisu do rozpowszechniania lub ściągania materiałów do których nie masz odpowiednich praw lub licencji. Użytkownicy zobowiązani są do przestrzeganie tych zasad.
Rejestracja konta jest jednoznaczna z akceptacją zasad.

2017 © immortaltorrent.pl


Najlepsze strony Torrentowe