Torrentów: 134783      Ranga: Gość               Stwórz konto Odzyskiwanie hasła


Kategorie
Filmy
 ⇒ DivX - XviD
 ⇒ RMVB
 ⇒ DVD-R
 ⇒ TV + Seriale
 ⇒ HDTV-HD
 ⇒ VCD - SVCD
 ⇒ x 264
 ⇒  3D
Gry
 ⇒ Gry PC
 ⇒ Gry Konsole
 ⇒ xbox360
Muzyka
 ⇒ Muzyka
 ⇒ Teledyski/Koncerty
Książki - Komiksy
 ⇒ E-Booki + Audio
 ⇒ Komiksy
Inne
 ⇒ XXX
 ⇒ Dla Dzieci
 ⇒ Sport
 ⇒ Pozostałe - Różne
 ⇒ Manga - Anime
 ⇒ GSM - PDA
Aplikacje
 ⇒ Windows
 ⇒ Linux + Macintosh



Detale torrenta

Polowanie na mysz-Mousehunt (1997)[WebRRip 1080p x264 by alE13 AC3][Lektor i Napisy PL/Eng][Eng]
Kondycja:
Dodane: 05/11/2016
Rozmiar: 7.69 GB
Uploader: alE13

seed(ów): 1
leecher(ów): 0
Pobrane: 0





Ocena: N/A



http://www.filmweb.pl/film/Polowanie+na+mysz-1997-150
http://www.imdb.com/title/tt0119715/

reżyseria: Gore Verbinski
scenariusz: Adam Rifkin
gatunek: Familijny,Komedia,Akcja
produkcja: USA
premiera: 19-12-1997
muzyka:         Alan Silvestri
zdjęcia:        Phedon Papamichael
czas:           1h 37mn

opis:

Two stumblebum inheritors are determined to rid their antique house of a mouse who is equally
determined to stay where he is.

Dwóch braci zamierza wystawić na licytację starą posiadłość odziedziczoną po zmarłym ojcu. Przedtem
jednak muszą pozbyć się zamieszkującej tam myszy.

obsada:

Nathan Lane, Lee Evans, Christopher Walken, Vicki Lewis

dane techniczne:

Mousehunt (1997)-alE13.mkv
Format                      : Matroska
Format version              : Version 4 / Version 2
File size                   : 7.63 GiB
Duration                    : 1h 37mn
Overall bit rate            : 11.2 Mbps
Movie name                  : Mousehunt (1997)-alE13
Encoded date                : UTC 2016-11-05 07:20:14
Writing application         : mkvmerge v8.1.0 ('Psychedelic Postcard') 64bit
Writing library             : libebml v1.3.1 + libmatroska v1.4.2
Attachements                : cover.jpg
DURATION                    : 01:32:22.329000000
NUMBER_OF_FRAMES            : 857
NUMBER_OF_BYTES             : 33731
_STATISTICS_WRITING_APP     : mkvmerge v8.1.0 ('Psychedelic Postcard') 64bit
_STATISTICS_WRITING_DATE_UT : 2016-11-05 07:20:14
_STATISTICS_TAGS            : BPS DURATION NUMBER_OF_FRAMES NUMBER_OF_BYTES

Video
ID                          : 1
Format                      : AVC
Format/Info                 : Advanced Video Codec
Format profile              : High@L4
Format settings, CABAC      : Yes
Format settings, ReFrames   : 2 frames
Codec ID                    : V_MPEG4/ISO/AVC
Duration                    : 1h 37mn
Bit rate                    : 10.1 Mbps
Width                       : 1 920 pixels
Height                      : 1 080 pixels
Display aspect ratio        : 16:9
Frame rate mode             : Constant
Frame rate                  : 23.976 fps
Color space                 : YUV
Chroma subsampling          : 4:2:0
Bit depth                   : 8 bits
Scan type                   : Progressive
Bits/(Pixel*Frame)          : 0.203
Stream size                 : 6.87 GiB (90%)
Title                       : Mousehunt (1997)-alE13
Default                     : Yes
Forced                      : No

Audio #1
ID                          : 2
Format                      : AC-3
Format/Info                 : Audio Coding 3
Mode extension              : CM (complete main)
Format settings, Endianness : Big
Codec ID                    : A_AC3
Duration                    : 1h 37mn
Bit rate mode               : Constant
Bit rate                    : 256 Kbps
Channel(s)                  : 2 channels
Channel positions           : Front: L R
Sampling rate               : 48.0 KHz
Compression mode            : Lossy
Delay relative to video     : 1s 250ms
Stream size                 : 179 MiB (2%)
Title                       : Mousehunt (1997)-alE13_AC3
Language                    : Polish
Default                     : Yes
Forced                      : No
DURATION                    : 01:37:34.075000000
NUMBER_OF_FRAMES            : 140357
NUMBER_OF_BYTES             : 7541976418
_STATISTICS_WRITING_APP     : mkvmerge v8.1.0 ('Psychedelic Postcard') 64bit
_STATISTICS_WRITING_DATE_UT : 2016-11-05 07:20:14
_STATISTICS_TAGS            : BPS DURATION NUMBER_OF_FRAMES NUMBER_OF_BYTES

Audio #2
ID                          : 3
Format                      : E-AC-3
Format/Info                 : Audio Coding 3
Format settings, Endianness : Big
Codec ID                    : A_EAC3
Duration                    : 1h 37mn
Bit rate mode               : Constant
Bit rate                    : 640 Kbps
Channel(s)                  : 6 channels
Channel positions           : Front: L C R, Side: L R, LFE
Sampling rate               : 48.0 KHz
Compression mode            : Lossy
Stream size                 : 447 MiB (6%)
Title                       : Mousehunt (1997)-alE13_AC3
Language                    : English
Default                     : No
Forced                      : No

Text #1
ID                          : 4
Format                      : UTF-8
Codec ID                    : S_TEXT/UTF8
Codec ID/Info               : UTF-8 Plain Text
Title                       : Mousehunt (1997)-alE13
Language                    : English
Default                     : No
Forced                      : No

Text #2
ID                          : 5
Format                      : UTF-8
Codec ID                    : S_TEXT/UTF8
Codec ID/Info               : UTF-8 Plain Text
Title                       : Mousehunt (1997)-alE13_SDH
Language                    : English
Default                     : No
Forced                      : No

Text #3
ID                          : 6
Format                      : UTF-8
Codec ID                    : S_TEXT/UTF8
Codec ID/Info               : UTF-8 Plain Text
Title                       : Mousehunt (1997)-alE13
Language                    : Polish
Default                     : Yes
Forced                      : No

Menu
00:00:00.000                : en: The Funeral (Main Titles)
00:06:50.000                : en: A Date with the Mayor
00:09:35.000                : en: The String
00:16:29.000                : en: What a Dump
00:21:28.000                : en: The Missing Larue
00:25:27.000                : en: A Single Vermin
00:30:37.000                : en: Sweet Dreams
00:34:18.000                : en: Never Underestimate Your Opponent
00:40:14.000                : en: Catzilla
00:44:46.000                : en: Ernie Smells a Rat
00:48:12.000                : en: Caesar
00:51:53.000                : en: All Strung Out
00:57:22.000                : en: What a Drag
01:02:06.000                : en: What a Gas
01:06:45.000                : en: Shoot!  Shoot!
01:09:03.000                : en: Sibling Rivalry
01:14:13.000                : en: The Auction
01:24:53.000                : en: Going... Going... Gone!
01:29:21.000                : en: String Cheese
01:32:48.000                : en: End Titles
Podobne torrenty
[x 264] Polowanie na mysz - Mousehunt 1997 [HDTV.x264]
[DivX - XviD] Polowanie na mysz - Mousehunt *1997* [DVDRip] [XviD-AC3] [Dubbing PL]
[x 264] Inferno (2016)[WEBRRip 1080p x264 by alE13 AC3][Napisy PL][Eng]
[HDTV-HD] Inferno (2016)[WEBRRip 1080p x264 by alE13 AC3][Napisy PL][Eng]
[HDTV-HD] Incydent-Breakdown (1997)[HDRip 1080p x264 by alE13 AC3][Lektor i Napisy PL/Eng][Eng]
[HDTV-HD] Czerwony Baron-Der Rote Baron (2008)[WEBRRip x264 by alE13 AC3][Lektor i napisy PL][Eng]
[HDTV-HD] Spawn [Director\'s cut] (1997)[BDRip 1080p by alE13 AC3/DTS][Lektor i Napisy PL/Eng][Eng]
[HDTV-HD] Pukając do Nieba Bram-Knockin\' On Heaven\'s Door (1997)[BDRip 1080p by alE13 DTS/AC3[Lektor i Napisy PL/Eng/Ger][Eng]
[HDTV-HD] U-571 (2000)[BDRip 1080p x264 by alE13 AC3/DTS][Lektor i Napisy PL/Eng][Eng]
[HDTV-HD] Tajemnice Los Angeles-L.A. Confidential (1997)[BDRip 1080p by alE13 AC3[Napisy PL/Eng][Eng]
Szczegóły torrenta
Trackerhttp://tracker.torrentyorg.pl/announce
Multitracker http://tracker.torrentyorg.pl/announce
http://mgtracker.org:2710/announce
http://pow7.com:80/announce
http://pow7.com/announce
udp://tracker.leechers-paradise.org:6969/announce
udp://tracker.coppersurfer.tk:6969/announce
udp://tracker.opentrackr.org:1337/announce
udp://tracker.coppersurfer.tk:6969/announce
udp://tracker.leechers-paradise.org:6969/announce
udp://eddie4.nl:6969/announce
udp://tracker.coppersurfer.tk:6969/announce
udp://p4p.arenabg.com:1337/announce
udp://p4p.arenabg.ch:1337/announce
udp://tracker.internetwarriors.net:1337/announce
udp://tracker.openbittorrent.com:80/announce
udp://tracker.piratepublic.com:1337/announce
udp://tracker.opentrackr.org:1337/announce
udp://explodie.org:6969/announce
udp://p4p.arenabg.ch:1337/announce
udp://inferno.demonoid.ooo:3392/announce
udp://inferno.demonoid.pw:3393/announce
udp://tracker.coppersurfer.tk:6969/announce
udp://zer0day.to:1337/announce
udp://tracker.ilibr.org:6969/announce
udp://tracker.leechers-paradise.org:6969/announce
udp://eddie4.nl:6969/announce
udp://tracker.ilibr.org:80/announce

Kategoria:Filmy » HDTV-HD
Dodane05/11/2016 08:11:20
Ostatnie Uaktualnienie05/11/2016 08:56:21
Pokaż/Ukryj pliki:
13 plików
NIKT JESZCZE NIE DODAŁ KOMENTARZA

DODAJ KOMENTARZ
Więcej Emoticon



Wstecz

Żaden z opisanych na stronie plików nie jest przetrzymywany na serwerze. Administrator strony immortaltorrent.pl nie może ponieść konsekwencji prawnych za to co użytkownicy zamieszczają lub piszą na stronie.
Nie możesz używać tego serwisu do rozpowszechniania lub ściągania materiałów do których nie masz odpowiednich praw lub licencji. Użytkownicy zobowiązani są do przestrzeganie tych zasad.
Rejestracja konta jest jednoznaczna z akceptacją zasad.

2017 © immortaltorrent.pl


Najlepsze strony Torrentowe