Torrentów: 134077      Ranga: Gość               Stwórz konto Odzyskiwanie hasła


Kategorie
Filmy
 ⇒ DivX - XviD
 ⇒ RMVB
 ⇒ DVD-R
 ⇒ TV + Seriale
 ⇒ HDTV-HD
 ⇒ VCD - SVCD
 ⇒ x 264
 ⇒  3D
Gry
 ⇒ Gry PC
 ⇒ Gry Konsole
 ⇒ xbox360
Muzyka
 ⇒ Muzyka
 ⇒ Teledyski/Koncerty
Książki - Komiksy
 ⇒ E-Booki + Audio
 ⇒ Komiksy
Inne
 ⇒ XXX
 ⇒ Dla Dzieci
 ⇒ Sport
 ⇒ Pozostałe - Różne
 ⇒ Manga - Anime
 ⇒ GSM - PDA
Aplikacje
 ⇒ Windows
 ⇒ Linux + Macintosh



Detale torrenta

Poślubiona mafii-Married to the Mob (1988)[HDRip 1080p x264 by alE13 AC3][Lektor PL][Eng]
Kondycja:
Dodane: 20/11/2016
Rozmiar: 8.35 GB
Uploader: alE13

seed(ów): 1
leecher(ów): 2
Pobrane: 0





Ocena: N/A



http://www.filmweb.pl/film/Po%C5%9Blubiona+mafii-1988-8840
http://www.imdb.com/title/tt0095593/

reżyseria: Jonathan Demme
scenariusz: Barry Strugatz,Mark R. Burns
gatunek: Komedia,Kryminał,Romans
produkcja: USA
premiera: 19-08-1988
muzyka:         David Byrne,Sinéad O'Connor
zdjęcia:        Tak Fujimoto
czas:           1h 44mn

opis:

An undercover FBI agent falls in love with a recently widowed mafia wife, who is trying
to restart her life following her husband's murder while being pursued by a libidinous mafia
kingpin seeking to claim her for himself.

Kiedy mąż Angeli przyłapany zostaje z dziewczyną swojego szefa, Tony'ego Russo, a następnie
zastrzelony w niewyjaśnionych okolicznościach, Angela czuje, że powinna zacząć swoje życie
od nowa. Okazuje się jednak, że zerwanie z przeszłością nie będzie wcale takie proste. W jej
życiu pojawi się bowiem Mike Downey, agent FBI, przekonany że Angela była wspólniczką swojego
męża w jego ciemnych interesach. Nie udaje jej się także uciec od dawnych znajomych.






obsada:

Michelle Pfeiffer, Alec Baldwin, Paul Lazar


dane techniczne:

alE13\Married to the Mob (1988)-alE13.mkv
Format                      : Matroska
Format version              : Version 4 / Version 2
File size                   : 8.28 GiB
Duration                    : 1 h 44 min
Overall bit rate            : 11.4 Mb/s
Movie name                  : Married to the Mob (1988)-alE13
Encoded date                : UTC 2016-11-20 17:55:56
Writing application         : mkvmerge v8.1.0 ('Psychedelic Postcard') 64bit
Writing library             : libebml v1.3.1 + libmatroska v1.4.2
Cover                       : Yes
Attachments                 : cover.jpg

Video
ID                          : 1
Format                      : AVC
Format/Info                 : Advanced Video Codec
Format profile              : High@L4.1
Format settings, CABAC      : Yes
Format settings, ReFrames   : 2 frames
Codec ID                    : V_MPEG4/ISO/AVC
Duration                    : 1 h 42 min
Bit rate                    : 10.5 Mb/s
Width                       : 1 920 pixels
Height                      : 1 040 pixels
Display aspect ratio        : 1.85:1
Frame rate mode             : Constant
Frame rate                  : 23.976 (24000/1001) FPS
Color space                 : YUV
Chroma subsampling          : 4:2:0
Bit depth                   : 8 bits
Scan type                   : Progressive
Bits/(Pixel*Frame)          : 0.219
Stream size                 : 7.53 GiB (91%)
Title                       : Married to the Mob (1988)-alE13
Writing library             : x264 core 142
Default                     : Yes
Forced                      : No
Color range                 : Limited
Color primaries             : BT.709
Transfer characteristics    : BT.709
Matrix coefficients         : BT.709

Audio #1
ID                          : 2
Format                      : AC-3
Format/Info                 : Audio Coding 3
Mode extension              : CM (complete main)
Format settings, Endianness : Big
Codec ID                    : A_AC3
Duration                    : 1 h 42 min
Bit rate mode               : Constant
Bit rate                    : 384 kb/s
Channel(s)                  : 2 channels
Channel positions           : Front: L R
Sampling rate               : 48.0 kHz
Frame rate                  : 31.250 FPS (1536 spf)
Bit depth                   : 16 bits
Compression mode            : Lossy
Stream size                 : 281 MiB (3%)
Title                       : Married to the Mob (1988)-alE13
Language                    : Polish
Default                     : Yes
Forced                      : No

Audio #2
ID                          : 4
Format                      : AC-3
Format/Info                 : Audio Coding 3
Mode extension              : CM (complete main)
Format settings, Endianness : Big
Codec ID                    : A_AC3
Duration                    : 1 h 44 min
Bit rate mode               : Constant
Bit rate                    : 640 kb/s
Channel(s)                  : 2 channels
Channel positions           : Front: L R
Sampling rate               : 48.0 kHz
Frame rate                  : 31.250 FPS (1536 spf)
Bit depth                   : 16 bits
Compression mode            : Lossy
Stream size                 : 476 MiB (6%)
Title                       : Married to the Mob (1988)-alE13
Language                    : English
Default                     : No
Forced                      : No

Text
ID                          : 3
Format                      : UTF-8
Codec ID                    : S_TEXT/UTF8
Codec ID/Info               : UTF-8 Plain Text
Duration                    : 1 h 33 min
Bit rate                    : 47 b/s
Count of elements           : 903
Stream size                 : 32.3 KiB (0%)
Title                       : Married to the Mob (1988)-alE13
Language                    : English
Default                     : No
Forced                      : No

Menu
00:00:00.000                : en:Chapter 1
00:11:58.634                : en:Chapter 2
00:24:50.405                : en:Chapter 3
00:40:36.183                : en:Chapter 4
00:49:45.899                : en:Chapter 5
01:05:33.929                : en:Chapter 6
01:18:39.339                : en:Chapter 7
01:31:29.484                : en:Chapter 8
Podobne torrenty
[HDTV-HD] Incydent-Breakdown (1997)[HDRip 1080p x264 by alE13 AC3][Lektor i Napisy PL/Eng][Eng]
[HDTV-HD] Spotkanie dwóch księżyców-Two Moon Junction (1988)[BRRip 1080p x264 by alE13 PCM/AC3][Lektor i Napisy PL/Eng][Eng]
[HDTV-HD] Roy Orbison & Friends: Black and White Night (1988)[BRRip 1080p x264 by alE13 DTS/AC3][Eng]
[ 3D] Sawa. Mały wielki bohater-Savva. Heart of the Warrior 3D (2015)-alE13[BRRip 1080p x264 by alE13 AC3][Dubbing PL/Eng][Rus]
[HDTV-HD] Coś-The Thing (1982)[BRRip 1080p x264 by alE13 AC3][Lektor i Napisy PL/Eng][Eng]
[HDTV-HD] Gladiator(2000)[BRRip 1080p x264 by alE13 AC3][Lektor i Napisy PL/Eng][Eng]
[HDTV-HD] Centurion (2010)[BRRip 1080p x264 by alE13 DTS/AC3][Lektor i Napisy PL/Eng][Eng]
[HDTV-HD] Bez wyjścia-No Way Out (1987)[BRRip 1080p x264 by alE13 AC3][Lektor i Napisy PL/Eng][Eng]
[HDTV-HD] Equilibrium (2002)[BRRip 1080p x264 by alE13 AC3][Lektor i Napisy PL/Eng][Eng]
[HDTV-HD] State of Grace (1990)[BDRip 1080p x264 by alE13 AC3/DTS][Lektor i Napisy PL/Eng][Eng]
Szczegóły torrenta
Trackerhttp://tracker.torrentyorg.pl/announce
Multitracker http://tracker.torrentyorg.pl/announce
http://mgtracker.org:2710/announce
http://pow7.com:80/announce
http://pow7.com/announce
udp://tracker.leechers-paradise.org:6969/announce
udp://tracker.coppersurfer.tk:6969/announce
udp://tracker.opentrackr.org:1337/announce
udp://tracker.coppersurfer.tk:6969/announce
udp://tracker.leechers-paradise.org:6969/announce
udp://eddie4.nl:6969/announce
udp://tracker.coppersurfer.tk:6969/announce
udp://p4p.arenabg.com:1337/announce
udp://p4p.arenabg.ch:1337/announce
udp://tracker.internetwarriors.net:1337/announce
udp://tracker.openbittorrent.com:80/announce
udp://tracker.piratepublic.com:1337/announce
udp://tracker.opentrackr.org:1337/announce
udp://explodie.org:6969/announce
udp://p4p.arenabg.ch:1337/announce
udp://inferno.demonoid.ooo:3392/announce
udp://inferno.demonoid.pw:3393/announce
udp://tracker.coppersurfer.tk:6969/announce
udp://zer0day.to:1337/announce
udp://tracker.ilibr.org:6969/announce
udp://tracker.leechers-paradise.org:6969/announce
udp://eddie4.nl:6969/announce
udp://tracker.ilibr.org:80/announce

Kategoria:Filmy » HDTV-HD
Dodane20/11/2016 19:11:30
Ostatnie Uaktualnienie20/11/2016 19:43:30
Pokaż/Ukryj pliki:
16 plików
NIKT JESZCZE NIE DODAŁ KOMENTARZA

DODAJ KOMENTARZ
Więcej Emoticon



Wstecz

Żaden z opisanych na stronie plików nie jest przetrzymywany na serwerze. Administrator strony immortaltorrent.pl nie może ponieść konsekwencji prawnych za to co użytkownicy zamieszczają lub piszą na stronie.
Nie możesz używać tego serwisu do rozpowszechniania lub ściągania materiałów do których nie masz odpowiednich praw lub licencji. Użytkownicy zobowiązani są do przestrzeganie tych zasad.
Rejestracja konta jest jednoznaczna z akceptacją zasad.

2017 © immortaltorrent.pl


Najlepsze strony Torrentowe