Torrentów: 149041      Ranga: Gosc               Stwórz konto Odzyskiwanie hasła


Kategorie
Filmy
 ⇒ DivX - XviD
 ⇒ RMVB
 ⇒ DVD-R
 ⇒ TV + Seriale
 ⇒ HDTV-HD
 ⇒ VCD - SVCD
 ⇒ x 264
 ⇒  3D
Gry
 ⇒ Gry PC
 ⇒ Gry Konsole
 ⇒ xbox360
Muzyka
 ⇒ Muzyka
 ⇒ Teledyski/Koncerty
Książki - Komiksy
 ⇒ E-Booki + Audio
 ⇒ Komiksy
Inne
 ⇒ XXX
 ⇒ Dla Dzieci
 ⇒ Sport
 ⇒ Pozostałe - Różne
 ⇒ Manga - Anime
 ⇒ GSM - PDA
Aplikacje
 ⇒ Windows
 ⇒ Linux + Macintosh



Detale torrenta

Never Let Me Go *2010* [BRRip.x264]
Kondycja:
Dodane: 30/12/2010
Rozmiar: 1.91 GB
Uploader: Anonimowy
seed(ów): 0
leecher(ów): 0
Pobrane: ---





Ocena: N/A


Historia kobiety wychowanej w angielskiej wiosce, która po latach ponownie nawi±zuje kontakt z dwojgiem przyjació³, by stawiæ czo³a mrocznym sekretom zwi±zanym z ich wspóln± przesz³o¶ci±.
re¿yseria: Mark Romanek
scenariusz: Alex Garland
premiera: 4 marca 2011 (Polska) 3 wrze¶nia 2010 (¦wiat)
produkcja: USA, Wielka Brytania
gatunek: Dramat, Thriller, Sci-Fi


http://img585.imageshack.us/img585/1773/vlcsnap2010122922h40m08.png
http://img87.imageshack.us/img87/8077/vlcsnap2010122922h39m55.png
http://img402.imageshack.us/img402/7563/vlcsnap2010122922h39m33.png
http://img232.imageshack.us/img232/7967/vlcsnap2010122922h37m41.png
http://img339.imageshack.us/img339/5553/vlcsnap2010122922h37m34.png

Format : Matroska
File size : 1.91 GiB
Duration : 1h 43mn
Overall bit rate : 2 631 Kbps


Video
Format settings, CABAC : Yes
Format settings, ReFrames : 4 frames
Format settings, GOP : M=1, N=32
Codec ID : V_MPEG4/ISO/AVC
Duration : 1h 43mn
Bit rate : 2 300 Kbps
Width : 1 276 pixels
Height : 544 pixels
Display aspect ratio : 2.35:1
Frame rate mode : Variable
Frame rate : 23.976 fps
Color space : YUV
Chroma subsampling : 4:2:0
Bit depth : 8 bits
Scan type : Progressive
Bits/(Pixel*Frame) : 0.138
Stream size : 1.59 GiB (83%)
Writing library : x264


Audio
ID : 2
Format : AC-3
Format/Info : Audio Coding 3
Mode extension : CM (complete main)
Codec ID : A_AC3
Duration : 1h 43mn
Bit rate mode : Constant
Bit rate : 384 Kbps
Channel(s) : 6 channels
Channel positions : Front: L C R, Side: L R, LFE
Sampling rate : 48.0 KHz
Bit depth : 16 bits
Video delay : -1mn 5s
Stream size : 285 MiB (15%)
Language : English


Never.Let.Me.Go.2010.720p.BRRip.x264.Feel-Free 2.27 KiB
Never.Let.Me.Go.2010.720p.BRRip.x264.Feel-Free.mkv 1.91 GiB
never_let_me_go_blu_ray.jpg 104.25 KiB
vlcsnap-2010-12-29-22h37m34s102.png 784.81 KiB
vlcsnap-2010-12-29-22h37m41s179.png 764.93 KiB
vlcsnap-2010-12-29-22h39m33s12.png 1.31 MiB
vlcsnap-2010-12-29-22h39m55s236.png 831.95 KiB
vlcsnap-2010-12-29-22h40m08s109.png 1.01 MiB

Podobne torrenty
[x 264] HereAfter 2010 [BRRip.x264]
[x 264] Every Day 2010 [BRRip.x264]
[x 264] Due Date (2010) [BRRip.x264]
[x 264] Red 2010 [720p.BRRip.x264]
[x 264] Dru¿yna A - The A-Team *2010* [BRRip.x264]
[x 264] Stone 2010 [BRRip.x264]
[x 264] Faster 2010 [BRRip.x264]
[x 264] La Rafle 2010 [BRRip.x264]
[x 264] KickAss 2010 [BRRip.X264]
[x 264] Crazy On The Outside 2010 [BRRip.x264]
Szczegóły torrenta
Trackerhttp://tracker.thepiratebay.org/announce
Kategoria:Filmy » x 264
Dodane30/12/2010 17:12:37
Ostatnie Uaktualnienie22/03/2013 15:37:20
NIKT JESZCZE NIE DODAŁ KOMENTARZA

DODAJ KOMENTARZ
Więcej Emoticon



Wstecz

Żaden z opisanych na stronie plików nie jest przetrzymywany na serwerze. Administrator strony immortaltorrent.pl nie może ponieść konsekwencji prawnych za to co użytkownicy zamieszczają lub piszą na stronie.
Nie możesz używać tego serwisu do rozpowszechniania lub ściągania materiałów do których nie masz odpowiednich praw lub licencji. Użytkownicy zobowiązani są do przestrzeganie tych zasad.
Rejestracja konta jest jednoznaczna z akceptacją zasad.

2019 © immortaltorrent.pl


Najlepsze strony Torrentowe