Torrentów: 134808      Ranga: Gość               Stwórz konto Odzyskiwanie hasła


Kategorie
Filmy
 ⇒ DivX - XviD
 ⇒ RMVB
 ⇒ DVD-R
 ⇒ TV + Seriale
 ⇒ HDTV-HD
 ⇒ VCD - SVCD
 ⇒ x 264
 ⇒  3D
Gry
 ⇒ Gry PC
 ⇒ Gry Konsole
 ⇒ xbox360
Muzyka
 ⇒ Muzyka
 ⇒ Teledyski/Koncerty
Książki - Komiksy
 ⇒ E-Booki + Audio
 ⇒ Komiksy
Inne
 ⇒ XXX
 ⇒ Dla Dzieci
 ⇒ Sport
 ⇒ Pozostałe - Różne
 ⇒ Manga - Anime
 ⇒ GSM - PDA
Aplikacje
 ⇒ Windows
 ⇒ Linux + Macintosh



Detale torrenta

Pilkarski poker(1988) [DVDRip] [XviD-torentup] [PL]
Kondycja:
Dodane: 07/01/2017
Rozmiar: 1.38 GB
Uploader: torentup

seed(ów): 44
leecher(ów): 8
Pobrane: 181





Ocena: N/A

=====================
INFO
================

Produkcja: Polska
Gatunek: Komedia, Sensacyjny, Sportowy
Premiera: 31 marca 1989 (Polska), 31 marca 1989 (świat)
Reżyseria: Janusz Zaorski
Scenariusz: Jan Purzycki


=====================
OPIS
====================

Klasyczna, polska komedia, której akcja rozgrywa się w środowisku piłkarskim. "Drukowane" mecze, przekupni sędziowie, nieuczciwi działacze - czy tak wygląda rzeczywistość polskiej ligi piłkarskiej? Zajrzyj za jej kulisy... Plejada najlepszych aktorów oraz ciągle aktualny i gorący temat gwarantują sto pięć minut doskonałej zabawy.

=====================
OBSADA
====================

★ Janusz Gajos .... Jan Laguna
★ Marian Opania .... Bolo
★ Mariusz Dmochowski .... Kmita, prezes "Powiśla"
★ Małgorzata Pieczyńska .... Irena Laguna
★ Jan Englert .... Prezes "Czarnych"
★ Edward Linde-Lubaszenko .... Stary Grom
★ Olaf Lubaszenko .... Olek Grom
★ Bronisław Pawlik .... Bronek, działacz starej daty w "Powiślu"


=====================
DANE TECHNICZNE
=====================

Format                         : AVI
Format/Info                    : Audio Video Interleave
File size                      : 1.38 GiB
Duration                       : 1h 40mn
Overall bit rate               : 1 963 Kbps
Writing application            : VirtualDubMod 1.5.10.2 (build 2540/release)
Writing library                : VirtualDubMod build 2540/release

Video
ID                             : 0
Format                         : MPEG-4 Visual
Format profile                 : Advanced Simple@L5
Format settings, BVOP          : 2
Format settings, QPel          : No
Format settings, GMC           : No warppoints
Format settings, Matrix        : Default (H.263)
Muxing mode                    : Packed bitstream
Codec ID                       : XVID
Codec ID/Hint                  : XviD
Duration                       : 1h 40mn
Bit rate                       : 1 825 Kbps
Width                          : 640 pixels
Height                         : 480 pixels
Display aspect ratio           : 4:3
Frame rate                     : 25.000 fps
Color space                    : YUV
Chroma subsampling             : 4:2:0
Bit depth                      : 8 bits
Scan type                      : Progressive
Compression mode               : Lossy
Bits/(Pixel*Frame)             : 0.238
Stream size                    : 1.29 GiB (93%)
Writing library                : XviD 64

Audio
ID                             : 1
Format                         : MPEG Audio
Format version                 : Version 1
Format profile                 : Layer 3
Mode                           : Joint stereo
Mode extension                 : MS Stereo
Codec ID                       : 55
Codec ID/Hint                  : MP3
Duration                       : 1h 40mn
Bit rate mode                  : Constant
Bit rate                       : 128 Kbps
Channel(s)                     : 2 channels
Sampling rate                  : 48.0 KHz
Compression mode               : Lossy
Stream size                    : 92.5 MiB (7%)
Alignment                      : Aligned on interleaves
Interleave, duration           : 40 ms (1.00 video frame)
Interleave, preload duration   : 504 ms

Podobne torrenty
[x 264] Piłkarski Poker - Football Poker (1988) [DVDRip x264 AC3][PL][Sub ENG]
[DivX - XviD] Piłkarski Poker *1988* [DVDRip.XviD] [PL]
[DVD-R] Piłkarski Poker *1988* [PAL.DVD] [PL]
[DVD-R] Piłkarski Poker *1988* [PAL.DVD5] [PL]
[DVD-R] Piłkarski Poker *1988* [DVD5] [PL]
[RMVB] Piłkarski Poker *1988* [PL][TVRip][RMVB]
[DivX - XviD] The Poker Club (2008) [DVDRip.XviD]
[DivX - XviD] The Poker House (2008) [DVDRip.XviD] [Eng]
[DivX - XviD] Poker King 2009 [DVDRip.XviD]
[DivX - XviD] The Poker Club *2008* [DVDRip.XviD]
Szczegóły torrenta
Trackerhttp://tracker.filetracker.pl:8089/announce
Multitracker http://tracker.filetracker.pl:8089/announce
http://tracker.free-torrents.pl/announce
http://tracker.streettorrent.pl:80/announce
http://tracker.torrenty.org:6969/announce
http://tracker.aletorrenty.pl:2710/announce
http://tracker.pubt.net:2710/announce
http://94.228.192.98/announce
http://www.tlv.cc:7777/announce
http://retracker.omsk.ru:2710/announce
http://tracker.immortaltorrent.pl/announce
udp://open.demonii.com:1337/announce
http://tracker.best-torrents.net:6969/announce
udp://torrent.gresille.org:80/announce
udp://9.rarbg.me:2710/announce
udp://eddie4.nl:6969/announce
udp://tracker.leechers-paradise.org:6969/announce
udp://tracker4.piratux.com:6969/announce
udp://www.eddie4.nl:6969/announce
udp://tracker.openbittorrent.com:80/announce
udp://tracker.publicbt.com:80/announce
udp://ipv4.tracker.harry.lu:80/announce
udp://tracker.publicbt.com/announce
udp://shadowshq.eddie4.nl:6969/announce
udp://9.rarbg.com:2710/announce
udp://11.rarbg.com:80/announce
udp://10.rarbg.com/announce
udp://tracker.istole.it:80/announce
udp://exodus.desync.com:6969
udp://tracker.prq.to/announce
udp://tracker.openbittorrent.com:80/announce
udp://tracker.publicbt.com:80/announce

Kategoria:Filmy » DivX - XviD
Dodane07/01/2017 04:01:13
Ostatnie Uaktualnienie08/01/2017 17:39:16
Pokaż/Ukryj pliki:
5 plików
NIKT JESZCZE NIE DODAŁ KOMENTARZA

DODAJ KOMENTARZ
Więcej Emoticon



Wstecz

Żaden z opisanych na stronie plików nie jest przetrzymywany na serwerze. Administrator strony immortaltorrent.pl nie może ponieść konsekwencji prawnych za to co użytkownicy zamieszczają lub piszą na stronie.
Nie możesz używać tego serwisu do rozpowszechniania lub ściągania materiałów do których nie masz odpowiednich praw lub licencji. Użytkownicy zobowiązani są do przestrzeganie tych zasad.
Rejestracja konta jest jednoznaczna z akceptacją zasad.

2017 © immortaltorrent.pl


Najlepsze strony Torrentowe