Torrentów: 135288      Ranga: Gość               Stwórz konto Odzyskiwanie hasła


Kategorie
Filmy
 ⇒ DivX - XviD
 ⇒ RMVB
 ⇒ DVD-R
 ⇒ TV + Seriale
 ⇒ HDTV-HD
 ⇒ VCD - SVCD
 ⇒ x 264
 ⇒  3D
Gry
 ⇒ Gry PC
 ⇒ Gry Konsole
 ⇒ xbox360
Muzyka
 ⇒ Muzyka
 ⇒ Teledyski/Koncerty
Książki - Komiksy
 ⇒ E-Booki + Audio
 ⇒ Komiksy
Inne
 ⇒ XXX
 ⇒ Dla Dzieci
 ⇒ Sport
 ⇒ Pozostałe - Różne
 ⇒ Manga - Anime
 ⇒ GSM - PDA
Aplikacje
 ⇒ Windows
 ⇒ Linux + Macintosh



Detale torrenta

Urodzony pod złą Gwiazdą-Man Without a Star (1955)[BRRip 1080p x264 by alE13 AC3][Lektor i Napisy Eng][Eng]
Kondycja:
Dodane: 12/06/2017
Rozmiar: 7.94 GB
Uploader: alE13

seed(ów): 1
leecher(ów): 1
Pobrane: 0





Ocena: N/A




http://www.imdb.com/title/tt0048340/
http://www.filmweb.pl/film/Cz%C5%82owiek+bez+gwiazdy-1955-31848#

Plik zawiera Sample.

gatunek: Western
produkcja: USA
premiera: 24-03-1955
reżyseria: King Vidor
scenariusz: Borden Chase, D.D. Beauchamp
muzyka: Hans J. Salter, Herman Stein
zdjęcia: Russell Metty
czas: 01:29:11

opis:

Dempsey Rae, a cowboy with no clear aim in life, winds up working on a spread with a hard lady owner
just arrived from the East. She needs a tough new top hand and uses all her means of persuasion to
get Rae to take the job. But he doesn't like the way the other settlers are getting treated and starts
to side with them, despite their introduction of the barbed wire he loathes.

Dempsey Rae pochodzi z Teksasu i wędruje po Kansa i Wyoming, gdzie spotyka chłopaka z Teksasu, Jeffa,
razem z nim zaczynają pracować w wielkim gospodarstwie hodowlanym. Przeciwko właścicielce zaczynają
się buntować drobni farmerzy, ogradzający swoje ziemię. Drogi Jeffa i Dempseya rozchodzą się.


http://i.imgur.com/Ni8kqk4.jpg
http://i.imgur.com/L6AZpSd.jpg
http://i.imgur.com/dzaACJK.jpg
http://i.imgur.com/WSuSfD1.jpg

obsada:

Kirk Douglas, Jeanne Crain, Claire Trevor

dane techniczne:

Man Without a Star (1955)-alE13.mkv
Format                      : Matroska
Format version              : Version 4 / Version 2
File size                   : 7.89 GiB
Duration                    : 1 h 29 min
Overall bit rate            : 12.7 Mb/s
Movie name                  : Man Without a Star (1955)-alE13
Encoded date                : UTC 2017-06-12 10:29:01
Writing application         : mkvmerge v8.1.0 ('Psychedelic Postcard') 64bit
Writing library             : libebml v1.3.1 + libmatroska v1.4.2
Cover                       : Yes
Attachments                 : cover.jpg

Video
ID                          : 1
Format                      : AVC
Format/Info                 : Advanced Video Codec
Format profile              : High@L4.1
Format settings, CABAC      : Yes
Format settings, ReFrames   : 2 frames
Codec ID                    : V_MPEG4/ISO/AVC
Duration                    : 1 h 29 min
Bit rate                    : 12.0 Mb/s
Width                       : 1 920 pixels
Height                      : 960 pixels
Display aspect ratio        : 2.000
Frame rate mode             : Constant
Frame rate                  : 23.976 (23976/1000) FPS
Original frame rate         : 23.976 (24000/1001) FPS
Color space                 : YUV
Chroma subsampling          : 4:2:0
Bit depth                   : 8 bits
Scan type                   : Progressive
Bits/(Pixel*Frame)          : 0.272
Stream size                 : 7.49 GiB (95%)
Title                       : Man Without a Star (1955)-alE13
Writing library             : x264 core 142
Default                     : Yes
Forced                      : No
Color range                 : Limited
Color primaries             : BT.709
Transfer characteristics    : BT.709
Matrix coefficients         : BT.709

Audio #1
ID                          : 2
Format                      : AC-3
Format/Info                 : Audio Coding 3
Mode extension              : CM (complete main)
Format settings, Endianness : Big
Codec ID                    : A_AC3
Duration                    : 1 h 29 min
Bit rate mode               : Constant
Bit rate                    : 384 kb/s
Channel(s)                  : 2 channels
Channel positions           : Front: L R
Sampling rate               : 48.0 kHz
Frame rate                  : 31.250 FPS (1536 spf)
Compression mode            : Lossy
Stream size                 : 245 MiB (3%)
Title                       : Man Without a Star (1955)-alE13_AC3
Language                    : English
Default                     : No
Forced                      : No

Audio #2
ID                          : 3
Format                      : AC-3
Format/Info                 : Audio Coding 3
Mode extension              : CM (complete main)
Format settings, Endianness : Big
Codec ID                    : A_AC3
Duration                    : 1 h 28 min
Bit rate mode               : Constant
Bit rate                    : 256 kb/s
Channel(s)                  : 2 channels
Channel positions           : Front: L R
Sampling rate               : 44.1 kHz
Frame rate                  : 28.711 FPS (1536 spf)
Compression mode            : Lossy
Delay relative to video     : 161 ms
Stream size                 : 163 MiB (2%)
Title                       : Man Without a Star (1955)-alE13_AC3
Language                    : Polish
Default                     : Yes
Forced                      : No

Text
ID                          : 4
Format                      : UTF-8
Codec ID                    : S_TEXT/UTF8
Codec ID/Info               : UTF-8 Plain Text
Duration                    : 1 h 28 min
Bit rate                    : 57 b/s
Count of elements           : 1026
Stream size                 : 37.5 KiB (0%)
Title                       : Man Without a Star (1955)-alE13
Language                    : English
Default                     : Yes
Forced                      : No

Menu
00:00:00.000                : en:00:00:00.000
00:01:43.020                : en:00:01:43.020
00:05:38.047                : en:00:05:38.047
00:08:09.281                : en:00:08:09.281
00:11:25.477                : en:00:11:25.478
00:14:07.264                : en:00:14:07.264
00:19:09.150                : en:00:19:09.150
00:25:12.513                : en:00:25:12.513
00:28:43.975                : en:00:28:43.975
00:32:11.040                : en:00:32:11.016
00:40:18.068                : en:00:40:18.044
00:44:42.585                : en:00:44:42.517
00:50:42.113                : en:00:50:42.044
00:52:08.658                : en:00:52:08.589
00:54:53.197                : en:00:54:53.128
01:04:06.251                : en:01:04:06.182
01:10:40.937                : en:01:10:40.868
01:12:41.099                : en:01:12:41.030
01:15:16.783                : en:01:15:16.686
01:17:42.490                : en:01:17:42.373
01:19:52.288                : en:01:19:52.170
01:22:33.157                : en:01:22:33.039
01:26:45.200                : en:01:26:45.083
01:28:03.029                : en:01:28:02.911
Podobne torrenty
[HDTV-HD] Sissi (1955)[BRRip 1080p x264 by alE13 AC3/DTS][Lektor i Napisy PL/Eng/Ger][Ger]
[HDTV-HD] Ryszard 3-Richard III (1955)[BRRip 1080p x264 by alE13 AC3/DTS][Napisy PL/Eng][Eng]
[HDTV-HD] Ryszard 3-Richard III (1955)[BRRip 1080p x264 by alE13 AC3/DTS][Napisy PL/Eng][Eng]
[HDTV-HD] Coś-The Thing (1982)[BRRip 1080p x264 by alE13 AC3][Lektor i Napisy PL/Eng][Eng]
[HDTV-HD] Gladiator(2000)[BRRip 1080p x264 by alE13 AC3][Lektor i Napisy PL/Eng][Eng]
[HDTV-HD] Centurion (2010)[BRRip 1080p x264 by alE13 DTS/AC3][Lektor i Napisy PL/Eng][Eng]
[HDTV-HD] Bez wyjścia-No Way Out (1987)[BRRip 1080p x264 by alE13 AC3][Lektor i Napisy PL/Eng][Eng]
[HDTV-HD] Equilibrium (2002)[BRRip 1080p x264 by alE13 AC3][Lektor i Napisy PL/Eng][Eng]
[HDTV-HD] 100 Karabinów-100 Rifles (1969) [BRRip 1080p x264 by alE13 AAC/DTS][Lektor i Napisy PL/Eng][Eng]
[HDTV-HD] Kleopatra-Cleopatra (1963)[BRRip 1080p x264 by alE13 AC3/DTS][Lektor i Napisy PL/Eng][Eng]
Szczegóły torrenta
Trackerhttp://tracker.devil-torrents.pl/announce
Multitracker http://tracker.devil-torrents.pl/announce
http://tracker.torrentyorg.pl/announce
udp://tracker.opentrackr.org:1337/announce
udp://tracker.leechers-paradise.org:6969/announce
udp://tracker.ilibr.org:80/announce
udp://tracker.coppersurfer.tk:6969/announce
udp://p4p.arenabg.ch:1337/announce
udp://inferno.demonoid.pw:3391/announce

Kategoria:Filmy » HDTV-HD
Dodane12/06/2017 13:06:10
Ostatnie Uaktualnienie12/06/2017 13:17:10
Pokaż/Ukryj pliki:
16 plików
NIKT JESZCZE NIE DODAŁ KOMENTARZA

DODAJ KOMENTARZ
Więcej Emoticon



Wstecz

Żaden z opisanych na stronie plików nie jest przetrzymywany na serwerze. Administrator strony immortaltorrent.pl nie może ponieść konsekwencji prawnych za to co użytkownicy zamieszczają lub piszą na stronie.
Nie możesz używać tego serwisu do rozpowszechniania lub ściągania materiałów do których nie masz odpowiednich praw lub licencji. Użytkownicy zobowiązani są do przestrzeganie tych zasad.
Rejestracja konta jest jednoznaczna z akceptacją zasad.

2017 © immortaltorrent.pl


Najlepsze strony Torrentowe