Torrentów: 142704      Ranga: Gosc               Stwórz konto Odzyskiwanie hasła


Kategorie
Filmy
 ⇒ DivX - XviD
 ⇒ RMVB
 ⇒ DVD-R
 ⇒ TV + Seriale
 ⇒ HDTV-HD
 ⇒ VCD - SVCD
 ⇒ x 264
 ⇒  3D
Gry
 ⇒ Gry PC
 ⇒ Gry Konsole
 ⇒ xbox360
Muzyka
 ⇒ Muzyka
 ⇒ Teledyski/Koncerty
Książki - Komiksy
 ⇒ E-Booki + Audio
 ⇒ Komiksy
Inne
 ⇒ XXX
 ⇒ Dla Dzieci
 ⇒ Sport
 ⇒ Pozostałe - Różne
 ⇒ Manga - Anime
 ⇒ GSM - PDA
Aplikacje
 ⇒ Windows
 ⇒ Linux + Macintosh



Detale torrenta

American Beauty (1999) [DVDRip] [XviD-torentup][Lektor PL]
Kondycja:
Dodane: 09/01/2017
Rozmiar: 680.72 MB
Uploader: torentup

seed(ów): 1
leecher(ów): 0
Pobrane: 0





Ocena: N/A

=====================
INFO
=====================

Polski tytu: American Beauty
Oryginalny tytu: American Beauty
Produkcja: USA
Gatunek: Dramat, Komedia
Data premiery: 2000-02-11 (Polska), 1999-09-08 (wiat)
Reyseria: Sam Mendes
Scenariusz: Alan Ball
Zdjcia: Conrad L. Hall
Muzyka: Thomas Newman
Czas trwania: 116 min.

http://www.filmweb.pl/American.Beauty#
https://www.youtube.com/watch?v=y4DvNwt0FSM


=====================
OPIS
====================

42-letni Lester Burnham (Kevin Spacey) przeywa kryzys wieku redniego. Dobry samochd, pikny dom i urzdzony z klas ogrd przestaj go cieszy. Nie potrafi ju porozumie si z on, dla ktrej osignicie zawodowego sukcesu jest najwaniejsze. Nastoletnia crka, przeywajca modziecze frustracje, stroni od jego towarzystwa. Problemy zawodowe dopeniaj kielich przepeniajcej go goryczy. Lester postanawia si zmieni, odnale sens i rado ycia. Jedn z szans na odmian wydaje si flirt z koleank crki.

=====================
OBSADA
====================

Kevin Spacey ... Lester Burnham
Annette Bening ... Carolyn Burnham
Thora Birch ... Jane Burnham
Wes Bentley ... Ricky Fitts
Mena Suvari ... Angela Hayes
Chris Cooper ... Col. Frank Fitts, USMC
Peter Gallagher ... Buddy Kane
Allison Janney ... Barbara Fitts

=====================
DANE TECHNICZNE
=====================

Format                         : AVI
Format/Info                    : Audio Video Interleave
File size                      : 680 MiB
Duration                       : 1h 56mn
Overall bit rate               : 815 Kbps
Writing library                : VirtualDub build 13130/release

Video
ID                             : 0
Format                         : MPEG-4 Visual
Codec ID                       : DIV3
Codec ID/Hint                  : DivX 3 Low
Duration                       : 1h 56mn
Bit rate                       : 709 Kbps
Width                          : 560 pixels
Height                         : 288 pixels
Display aspect ratio           : 1.944
Frame rate                     : 25.000 fps
Color space                    : YUV
Chroma subsampling             : 4:2:0
Bit depth                      : 8 bits
Compression mode               : Lossy
Bits/(Pixel*Frame)             : 0.176
Stream size                    : 592 MiB (87%)

Audio
ID                             : 1
Format                         : MPEG Audio
Format version                 : Version 1
Format profile                 : Layer 3
Mode                           : Joint stereo
Mode extension                 : Intensity Stereo
Codec ID                       : 55
Codec ID/Hint                  : MP3
Duration                       : 1h 56mn
Bit rate mode                  : Constant
Bit rate                       : 96.0 Kbps
Channel(s)                     : 2 channels
Sampling rate                  : 44.1 KHz
Compression mode               : Lossy
Stream size                    : 80.0 MiB (12%)
Alignment                      : Split accross interleaves
Interleave, duration           : 40 ms (1.00 video frame)
Interleave, preload duration   : 463 ms



Podobne torrenty
[DivX - XviD] American Beauty *1999* [DVDRip.DiviX] [Lektor PL]
[RMVB] American Beauty 1999 [DVDRip.RMVB] [Lektor PL]
[DivX - XviD] American Beauty *1999* [DVDRip.XviD] [Napisy PL]
[DivX - XviD] American Beauty *1999* [DVDRip] [ENG]
[DVD-R] American Beauty *1999* [DVD9] [Lektor PL]
[DivX - XviD] American Pie 1 : Czyli Sprawa Dowcipna - American Pie 1 *1999* UNRATED [720p.BDRip.XviD.AC3-Zonicaa][Lektor PL
[DivX - XviD] Ajlawju (1999) [DVDRip][XviD-torentup] [PL]
[DivX - XviD] American Pie *1999* [DVDRip.XviD] [Lektor PL]
[DivX - XviD] American Pie *1999* [DVDRip] [XviD-NN] [Lektor PL]
[DivX - XviD] American Pie 1-6 *1999-2007* [DVDRip] [Lektor PL]
Szczegóły torrenta
Trackerhttp://tracker.filetracker.pl:8089/announce
Multitracker http://tracker.filetracker.pl:8089/announce
http://tracker.free-torrents.pl/announce
http://tracker.streettorrent.pl:80/announce
http://tracker.torrenty.org:6969/announce
http://tracker.aletorrenty.pl:2710/announce
http://tracker.pubt.net:2710/announce
http://94.228.192.98/announce
http://www.tlv.cc:7777/announce
http://retracker.omsk.ru:2710/announce
http://tracker.immortaltorrent.pl/announce
udp://open.demonii.com:1337/announce
http://tracker.best-torrents.net:6969/announce
udp://torrent.gresille.org:80/announce
udp://9.rarbg.me:2710/announce
udp://eddie4.nl:6969/announce
udp://tracker.leechers-paradise.org:6969/announce
udp://tracker4.piratux.com:6969/announce
udp://www.eddie4.nl:6969/announce
udp://tracker.openbittorrent.com:80/announce
udp://tracker.publicbt.com:80/announce
udp://ipv4.tracker.harry.lu:80/announce
udp://tracker.publicbt.com/announce
udp://shadowshq.eddie4.nl:6969/announce
udp://9.rarbg.com:2710/announce
udp://11.rarbg.com:80/announce
udp://10.rarbg.com/announce
udp://tracker.istole.it:80/announce
udp://exodus.desync.com:6969
udp://tracker.prq.to/announce
udp://tracker.openbittorrent.com:80/announce
udp://tracker.publicbt.com:80/announce

Kategoria:Filmy » DivX - XviD
Dodane09/01/2017 00:01:20
Ostatnie Uaktualnienie09/01/2017 00:41:20
Pokaż/Ukryj pliki:
5 plików
NIKT JESZCZE NIE DODAŁ KOMENTARZA

DODAJ KOMENTARZ
Więcej Emoticon



Wstecz

Żaden z opisanych na stronie plików nie jest przetrzymywany na serwerze. Administrator strony immortaltorrent.pl nie może ponieść konsekwencji prawnych za to co użytkownicy zamieszczają lub piszą na stronie.
Nie możesz używać tego serwisu do rozpowszechniania lub ściągania materiałów do których nie masz odpowiednich praw lub licencji. Użytkownicy zobowiązani są do przestrzeganie tych zasad.
Rejestracja konta jest jednoznaczna z akceptacją zasad.

2018 © immortaltorrent.pl


Najlepsze strony Torrentowe