Torrentów: 135635      Ranga: Go¶ć               Stwórz konto Odzyskiwanie hasła


Kategorie
Filmy
 ⇒ DivX - XviD
 ⇒ RMVB
 ⇒ DVD-R
 ⇒ TV + Seriale
 ⇒ HDTV-HD
 ⇒ VCD - SVCD
 ⇒ x 264
 ⇒  3D
Gry
 ⇒ Gry PC
 ⇒ Gry Konsole
 ⇒ xbox360
Muzyka
 ⇒ Muzyka
 ⇒ Teledyski/Koncerty
Ksi±żki - Komiksy
 ⇒ E-Booki + Audio
 ⇒ Komiksy
Inne
 ⇒ XXX
 ⇒ Dla Dzieci
 ⇒ Sport
 ⇒ Pozostałe - Różne
 ⇒ Manga - Anime
 ⇒ GSM - PDA
Aplikacje
 ⇒ Windows
 ⇒ Linux + Macintosh



Detale torrenta

WiedĽmy-The Witches (1990)[BDRip 1080p by alE13 AC3/FLAC[Lektor i Napisy PL/Eng][Eng]
Kondycja:
Dodane: 06/01/2017
Rozmiar: 7.87 GB
Uploader: alE13

seed(ów): 0
leecher(ów): 0
Pobrane: 0





Ocena: N/A



http://www.imdb.com/title/tt0100944/
http://www.filmweb.pl/film/Wied%C5%BAmy-1990-4785

Plik zawiera Sample.

reżyseria: Nicolas Roeg
scenariusz: Allan Scott
gatunek: Familijny,Fantasy
produkcja: USA,Wielka Brytania
premiera: 25-05-1990
muzyka:         Stanley Myers
zdjęcia:        Harvey Harrison
czas:           1h 31mn

opis:

A young boy stumbles onto a witch convention and must stop them, even after he has been turned into a mouse.

Młody chłopak staje się nieproszonym go¶ciem na zlocie czarownic. Przemieniony w mysz próbuje udaremnić ich
nikczemne plany.

http://i.imgur.com/CPUgliZ.jpg
http://i.imgur.com/y2834wh.jpg
http://i.imgur.com/YYxoA0k.jpg
http://i.imgur.com/V4S22gH.jpg

obsada:

Anjelica Huston, Mai Zetterling, Jasen Fisher

dane techniczne:

The Witches (1990)-alE13.mkv
Format                      : Matroska
Format version              : Version 4 / Version 2
File size                   : 7.81 GiB
Duration                    : 1 h 31 min
Overall bit rate mode       : Variable
Overall bit rate            : 12.2 Mb/s
Movie name                  : The Witches (1990)-alE13
Encoded date                : UTC 2017-01-06 10:20:56
Writing application         : mkvmerge v8.1.0 ('Psychedelic Postcard') 64bit
Writing library             : libebml v1.3.1 + libmatroska v1.4.2
Cover                       : Yes
Attachments                 : cover.jpg

Video
ID                          : 1
Format                      : AVC
Format/Info                 : Advanced Video Codec
Format profile              : High@L4.1
Format settings, CABAC      : Yes
Format settings, ReFrames   : 2 frames
Codec ID                    : V_MPEG4/ISO/AVC
Duration                    : 1 h 31 min
Bit rate                    : 11.5 Mb/s
Width                       : 1 920 pixels
Height                      : 1 080 pixels
Display aspect ratio        : 16:9
Frame rate mode             : Constant
Frame rate                  : 23.976 (24000/1001) FPS
Color space                 : YUV
Chroma subsampling          : 4:2:0
Bit depth                   : 8 bits
Scan type                   : Progressive
Bits/(Pixel*Frame)          : 0.232
Stream size                 : 7.29 GiB (93%)
Writing library             : x264 core 142
Default                     : Yes
Forced                      : No
Color range                 : Limited
Color primaries             : BT.709
Transfer characteristics    : BT.709
Matrix coefficients         : BT.709

Audio #1
ID                          : 3
Format                      : AC-3
Format/Info                 : Audio Coding 3
Mode extension              : CM (complete main)
Format settings, Endianness : Big
Codec ID                    : A_AC3
Duration                    : 1 h 29 min
Bit rate mode               : Constant
Bit rate                    : 256 kb/s
Channel(s)                  : 2 channels
Channel positions           : Front: L R
Sampling rate               : 48.0 kHz
Frame rate                  : 31.250 FPS (1536 spf)
Bit depth                   : 16 bits
Compression mode            : Lossy
Delay relative to video     : 3 s 150 ms
Stream size                 : 164 MiB (2%)
Title                       : The Witches (1990)-alE13_AC3
Language                    : Polish
Default                     : Yes
Forced                      : No

Audio #2
ID                          : 4
Format                      : FLAC
Format/Info                 : Free Lossless Audio Codec
Codec ID                    : A_FLAC
Duration                    : 1 h 31 min
Bit rate mode               : Variable
Bit rate                    : 556 kb/s
Channel(s)                  : 2 channels
Channel positions           : Front: L R
Sampling rate               : 48.0 kHz
Frame rate                  : 10.417 FPS (4608 spf)
Bit depth                   : 16 bits
Stream size                 : 364 MiB (5%)
Title                       : The Witches (1990)-alE13_FLAC
Language                    : English
Default                     : No
Forced                      : No

Text #1
ID                          : 2
Format                      : UTF-8
Codec ID                    : S_TEXT/UTF8
Codec ID/Info               : UTF-8 Plain Text
Duration                    : 1 h 26 min
Bit rate                    : 50 b/s
Count of elements           : 1219
Stream size                 : 32.2 KiB (0%)
Title                       : The Witches (1990)-alE13
Language                    : English
Default                     : No
Forced                      : No

Text #2
ID                          : 5
Format                      : UTF-8
Codec ID                    : S_TEXT/UTF8
Codec ID/Info               : UTF-8 Plain Text
Duration                    : 1 h 28 min
Bit rate                    : 50 b/s
Count of elements           : 1372
Stream size                 : 32.9 KiB (0%)
Title                       : The Witches (1990)-alE13
Language                    : Polish
Default                     : Yes
Forced                      : No

Menu
00:00:00.000                : en:1. Broomstick's eye-view Credits.
00:02:10.167                : en:2. Real witches.
00:04:44.035                : en:3. The story of Erica.
00:08:46.202                : en:4. Witches' sense of smell.
00:11:36.369                : en:5. Sad news.
00:13:53.369                : en:6. "Little boys like snakes."
00:16:57.036                : en:7. Luke's birthday.
00:19:13.169                : en:8. The Hotel Excelsior.
00:21:51.037                : en:9. Bruno - and a mice - hating manager.
00:25:50.371                : en:10. Afternoon tea - with aftereffects.
00:28:54.771                : en:11. The Grand High Witch's plot.
00:32:41.871                : en:12. Punishment.
00:33:53.004                : en:13. Formula 86.
00:38:25.805                : en:14. Bruno transformed.
00:42:44.539                : en:15. Luke discovered.
00:45:17.473                : en:16. Cornered and transformed.
00:49:51.374                : en:17. Reunion with Bruno.
00:54:06.374                : en:18. Cluing Helga in.
00:57:24.874                : en:19. Across a black cat's path.
00:59:43.675                : en:20. Close call.
01:05:01.543                : en:21. Skeptical parents.
01:07:21.710                : en:22. The maid's discovery.
01:08:57.444                : en:23. Kitchen intrigue.
01:12:56.778                : en:24. Mouse mayhem.
01:14:41.612                : en:25. Splat! goes a warning.
01:16:05.046                : en:26. Saving Jenkins.
01:19:19.014                : en:27. The soup at work.
01:23:32.448                : en:28. Special delivery.
01:25:49.615                : en:29. Magic in the night.
01:29:16.182                : en:30. End Credits.
Podobne torrenty
[DivX - XviD] WiedĽmy - The Witches (1990) [DVDRip.XviD-GHW] [Lektor PL]
[DivX - XviD] WiedĽmy - The Witches (1990) [DVDRip] [XviD-GHW] [Lektor PL]
[HDTV-HD] State of Grace (1990)[BDRip 1080p x264 by alE13 AC3/DTS][Lektor i Napisy PL/Eng][Eng]
[HDTV-HD] Tony Rome (1967)[BDRip 1080p by alE13 FLAC/AC3[Napisy PL/Eng][Eng]
[HDTV-HD] Dajcie mi głowę Alfredo Garcii-Bring Me the Head of Alfredo Garcia (1974)[BDRip 1080p by alE13 AC3/FLAC][Lektor i Napisy PL/Eng][Eng]
[HDTV-HD] W poszukiwaniu zemsty-The Shooting (1966)[BDRip 1080p x264 by alE13 AC3/FLAC][Lektor PL/Sub Eng][Eng]
[HDTV-HD] Ptaszek na uwięzi-Bird on a Wire (1990)[BRRip 1080p x264 by alE13 AC3/DTS][Lektor i Napisy PL/Eng][Eng]
[HDTV-HD] Być albo nie być-To Be or Not to Be (1983)[BDRip 1080p by alE13 AC3/DTS][Lektor i Napisy PL/Eng][Eng]
[HDTV-HD] U-571 (2000)[BDRip 1080p x264 by alE13 AC3/DTS][Lektor i Napisy PL/Eng][Eng]
[HDTV-HD] Wskrzeszony-The Resurrected (1991)[BDRip 1080p by alE13 DTS/AC3][Lektor PL i Napisy Eng][Eng]
Szczegóły torrenta
Trackerhttp://auratorrent.pl:8089/announce
Multitracker http://auratorrent.pl:8089/announce
http://pow7.com:80/announce
http://pow7.com/announce
http://tracker.tfile.me/announce
http://retracker.omsk.ru:2710/announce
http://mgtracker.org:2710/announce
udp://tracker.leechers-paradise.org:6969/announce
http://mgtracker.org:2710/announce
http://pow7.com:80/announce
http://pow7.com/announce
http://tracker.torrentyorg.pl/announce
udp://inferno.demonoid.ooo:3392/announce
udp://inferno.demonoid.pw:3393/announce
udp://tracker.coppersurfer.tk:6969/announce

Kategoria:Filmy » HDTV-HD
Dodane06/01/2017 11:01:05
Ostatnie Uaktualnienie23/08/2017 17:31:48
Pokaż/Ukryj pliki:
13 plików
NIKT JESZCZE NIE DODAŁ KOMENTARZA

DODAJ KOMENTARZ
Więcej Emoticon



Wstecz

Żaden z opisanych na stronie plików nie jest przetrzymywany na serwerze. Administrator strony immortaltorrent.pl nie może ponieść konsekwencji prawnych za to co użytkownicy zamieszczają lub piszą na stronie.
Nie możesz używać tego serwisu do rozpowszechniania lub ściągania materiałów do których nie masz odpowiednich praw lub licencji. Użytkownicy zobowiązani są do przestrzeganie tych zasad.
Rejestracja konta jest jednoznaczna z akceptacją zasad.

2017 © immortaltorrent.pl


Najlepsze strony Torrentowe