Torrentów: 135273      Ranga: Gość               Stwórz konto Odzyskiwanie hasła


Kategorie
Filmy
 ⇒ DivX - XviD
 ⇒ RMVB
 ⇒ DVD-R
 ⇒ TV + Seriale
 ⇒ HDTV-HD
 ⇒ VCD - SVCD
 ⇒ x 264
 ⇒  3D
Gry
 ⇒ Gry PC
 ⇒ Gry Konsole
 ⇒ xbox360
Muzyka
 ⇒ Muzyka
 ⇒ Teledyski/Koncerty
Książki - Komiksy
 ⇒ E-Booki + Audio
 ⇒ Komiksy
Inne
 ⇒ XXX
 ⇒ Dla Dzieci
 ⇒ Sport
 ⇒ Pozostałe - Różne
 ⇒ Manga - Anime
 ⇒ GSM - PDA
Aplikacje
 ⇒ Windows
 ⇒ Linux + Macintosh



Detale torrenta

W Potrzasku-The Hunted (1995)[BDRip 1080p x264 by alE13 AC3/DTS][Lektor i Napisy PL/Eng][Eng]
Kondycja:
Dodane: 30/11/2016
Rozmiar: 8.28 GB
Uploader: alE13

seed(ów): 1
leecher(ów): 0
Pobrane: 0





Ocena: N/A



http://www.filmweb.pl/film/W+potrzasku-1995-10469
http://www.imdb.com/title/tt0113360/

reżyseria: J.F. Lawton
scenariusz: J.F. Lawton
gatunek: Sensacyjny, Akcja
produkcja: USA
premiera: 24-02-1995
muzyka:         Kodo, Leonard Eto
zdjęcia:        Jack Conroy
czas:           1h 50 min

opis:

Paul is on one of his many business trips to Tokyo, as a computer-chip executive from New York,
when he meets a beautiful and mysterious woman. Later, he finds himself in the wrong place at the
wrong time, inadvertently interrupting an assassination by a feared Ninja-cult. As he is now the
only man to have seen the face of the cult's warrior-leader and lived, he soon realizes that he
is facing a markedly foreshortened life-expectancy. Teaming up with a friendly samurai couple, on
a two-centuries-old blood-feud with the Ninja, he struggles to survive. Finally, recuperating on
an island-fortress, he learns swordsmanship, and perhaps, a little about courage, honor, love,
and loyalty. The requisite final confrontation is rife with bloody swordplay and spectacular
martial-arts action sequences.

Wpływowy amerykański biznesman Paul Racine i jego piękna asystentka stają się celem dla płatnych zabójców.
Aby przeżyć Paul musi zdobyć zaufanie potężnego samuraja, którego otacza sława niezwyciężonego wojownika.
Wspólnie wypowiedzą wojnę siłom zła, by zapobiec wybuchowi konfliktu na wielką skalę.

obsada:

Christopher Lambert, John Lone, Joan Chen

dane techniczne:

The Hunted (1995)-alE13.mkv
Format                      : Matroska
Format version              : Version 4 / Version 2
File size                   : 8.21 GiB
Duration                    : 1 h 50 min
Overall bit rate            : 10.7 Mb/s
Movie name                  : The Hunted (1995)-alE13
Encoded date                : UTC 2016-09-04 08:56:52
Writing application         : mkvmerge v8.1.0 ('Psychedelic Postcard') 64bit
Writing library             : libebml v1.3.1 + libmatroska v1.4.2
Cover                       : Yes
Attachments                 : cover.jpg

Video
ID                          : 1
Format                      : AVC
Format/Info                 : Advanced Video Codec
Format profile              : High@L4
Format settings, CABAC      : Yes
Format settings, ReFrames   : 2 frames
Codec ID                    : V_MPEG4/ISO/AVC
Duration                    : 1 h 50 min
Bit rate                    : 8 258 kb/s
Width                       : 1 920 pixels
Height                      : 1 080 pixels
Display aspect ratio        : 16:9
Frame rate mode             : Constant
Frame rate                  : 23.976 (24000/1001) FPS
Color space                 : YUV
Chroma subsampling          : 4:2:0
Bit depth                   : 8 bits
Scan type                   : Progressive
Bits/(Pixel*Frame)          : 0.166
Stream size                 : 6.36 GiB (77%)
Title                       : The Hunted (1995)-alE13
Default                     : Yes
Forced                      : No

Audio #1
ID                          : 2
Format                      : AC-3
Format/Info                 : Audio Coding 3
Mode extension              : CM (complete main)
Format settings, Endianness : Big
Codec ID                    : A_AC3
Duration                    : 1 h 50 min
Bit rate mode               : Constant
Bit rate                    : 256 kb/s
Channel(s)                  : 2 channels
Channel positions           : Front: L R
Sampling rate               : 48.0 kHz
Frame rate                  : 31.250 FPS (1536 spf)
Compression mode            : Lossy
Delay relative to video     : 550 ms
Stream size                 : 202 MiB (2%)
Title                       : The Hunted (1995)-alE13_AC3
Language                    : Polish
Default                     : Yes
Forced                      : No

Audio #2
ID                          : 4
Format                      : DTS
Format/Info                 : Digital Theater Systems
Format profile              : MA / Core
Mode                        : 16
Format settings, Endianness : Big
Codec ID                    : A_DTS
Duration                    : 1 h 50 min
Bit rate mode               : Variable / Constant
Bit rate                    : 2 135 kb/s / 1 509 kb/s
Channel(s)                  : 6 channels
Channel positions           : Front: L C R, Side: L R, LFE
Sampling rate               : 48.0 kHz
Frame rate                  : 93.750 FPS (512 spf)
Bit depth                   : 16 bits
Compression mode            : Lossless / Lossy
Stream size                 : 1.64 GiB (20%)
Title                       : The Hunted (1995)-alE13_DTS
Language                    : English
Default                     : No
Forced                      : No

Text #1
ID                          : 3
Format                      : UTF-8
Codec ID                    : S_TEXT/UTF8
Codec ID/Info               : UTF-8 Plain Text
Duration                    : 1 h 43 min
Bit rate                    : 27 b/s
Count of elements           : 742
Stream size                 : 21.0 KiB (0%)
Title                       : The Hunted (1995)-alE13
Language                    : Polish
Default                     : Yes
Forced                      : No

Text #2
ID                          : 5
Format                      : PGS
Muxing mode                 : zlib
Codec ID                    : S_HDMV/PGS
Codec ID/Info               : Picture based subtitle format used on BDs/HD-DVDs
Duration                    : 1 h 43 min
Bit rate                    : 3 795 b/s
Count of elements           : 1398
Stream size                 : 2.81 MiB (0%)
Title                       : The Hunted (1995)-alE13
Language                    : English
Default                     : No
Forced                      : No



Podobne torrenty
[HDTV-HD] Ślepy zaułek-Clockers (1995)[BDRip 1080p by alE13 AC3/DTS][Lektor i Napisy PL/Eng][Eng]
[HDTV-HD] Kobieta-Demolka-The Demolitionist (1995)[BDRip 1080p by alE13 AC3][Lektor i Napisy PL/Ger][Eng]
[HDTV-HD] Nagła śmierć-Sudden Death (1995)[BDRip 1080p by alE13 DTS/AC3[Lektor i Napisy PL/Eng][Eng]
[HDTV-HD] Tajemnica Syriusza-Screamers (1995)[WEBRip 1080p x264 by alE13 AC3][Lektor i Napisy PL/Eng][Eng]
[HDTV-HD] U-571 (2000)[BDRip 1080p x264 by alE13 AC3/DTS][Lektor i Napisy PL/Eng][Eng]
[HDTV-HD] State of Grace (1990)[BDRip 1080p x264 by alE13 AC3/DTS][Lektor i Napisy PL/Eng][Eng]
[HDTV-HD] Terrorysta-Ticker (2001)[BDRip 1080p x264 by alE13 AC3/DTS][Lektor PL/Napisy Eng][Eng]
[HDTV-HD] Baba Jaga-Don\'t Knock Twice (2016)[BDRip 1080p x264 by alE13 AC3/DTS][Lektor Ivona i Napisy PL/Eng][Eng]
[ 3D] Doktor Strange-Doctor Strange (IMAX Edition) 3D (2016)-alE13[BDRip 1080p x264 by alE13 AC3][Dubbing i Napisy PL][Eng]
[HDTV-HD] Huzar na dachu-Le hussard sur le toit (1995)[BRRip 1080p x264 by alE13 AC3/DTS][Napisy PL/Eng][Fre]
Szczegóły torrenta
Trackerhttp://agusiq-torrents.pl:6969/announce
Multitracker http://agusiq-torrents.pl:6969/announce
http://pow7.com:80/announce
http://pow7.com/announce
http://tracker.tfile.me/announce
http://retracker.omsk.ru:2710/announce
http://mgtracker.org:2710/announce
udp://tracker.leechers-paradise.org:6969/announce
http://mgtracker.org:2710/announce
http://pow7.com:80/announce
http://pow7.com/announce
http://tracker.torrentyorg.pl/announce
udp://inferno.demonoid.ooo:3392/announce
udp://inferno.demonoid.pw:3393/announce
udp://tracker.coppersurfer.tk:6969/announce

Kategoria:Filmy » HDTV-HD
Dodane30/11/2016 08:11:13
Ostatnie Uaktualnienie30/11/2016 08:27:13
Pokaż/Ukryj pliki:
14 plików
NIKT JESZCZE NIE DODAŁ KOMENTARZA

DODAJ KOMENTARZ
Więcej Emoticon



Wstecz

Żaden z opisanych na stronie plików nie jest przetrzymywany na serwerze. Administrator strony immortaltorrent.pl nie może ponieść konsekwencji prawnych za to co użytkownicy zamieszczają lub piszą na stronie.
Nie możesz używać tego serwisu do rozpowszechniania lub ściągania materiałów do których nie masz odpowiednich praw lub licencji. Użytkownicy zobowiązani są do przestrzeganie tych zasad.
Rejestracja konta jest jednoznaczna z akceptacją zasad.

2017 © immortaltorrent.pl


Najlepsze strony Torrentowe