Torrentów: 134560      Ranga: Gość               Stwórz konto Odzyskiwanie hasła


Kategorie
Filmy
 ⇒ DivX - XviD
 ⇒ RMVB
 ⇒ DVD-R
 ⇒ TV + Seriale
 ⇒ HDTV-HD
 ⇒ VCD - SVCD
 ⇒ x 264
 ⇒  3D
Gry
 ⇒ Gry PC
 ⇒ Gry Konsole
 ⇒ xbox360
Muzyka
 ⇒ Muzyka
 ⇒ Teledyski/Koncerty
Książki - Komiksy
 ⇒ E-Booki + Audio
 ⇒ Komiksy
Inne
 ⇒ XXX
 ⇒ Dla Dzieci
 ⇒ Sport
 ⇒ Pozostałe - Różne
 ⇒ Manga - Anime
 ⇒ GSM - PDA
Aplikacje
 ⇒ Windows
 ⇒ Linux + Macintosh



Detale torrenta

Szybcy i wściekli 7 - Fast and Furious 7 2015 [HQCAM] [READNFO] [XVID MP3] [MURD3R] [ENG]
Kondycja:
Dodane: 04/04/2015
Rozmiar: 2.12 GB
Uploader: Anonimowy

seed(ów): 5006
leecher(ów): 24471
Pobrane: 6680





Ocena: N/A

INFO

reżyseria: James Wan
scenariusz: Chris Morgan
gatunek: Akcja
produkcja: JaponiaUSA
premiera: 10 kwietnia 2015 (Polska) 16 marca 2015 (świat)

OPIS


Tej prędkości, tej wściekłości nigdy dość! Dominic Toretto, Brian O'Conner, Letty Ortiz i inni szybcy i wściekli wracają na ekrany kin. Za każdym razem twórcy filmu starają się przebić efekty poprzedniej części, tak będzie i tym razem - zwłaszcza że motywem przewodnim filmu będzie zemsta. Tyle, że ta nie będzie słodka, a wyrafinowana, brutalna i skuteczna - Deckard Shaw planuje pomścić ś...


OBSADA


Vin Diesel
Paul Walker
Jason Statham
Michelle Rodriguez
Jordana Brewster

DANE TECHNICZNE


Format                      : AVI
Format/Info                 : Audio Video Interleave
Format profile              : OpenDML
File size                   : 2.08 GiB
Duration                    : 2h 6mn
Overall bit rate            : 2 340 Kbps
Writing application         : Lavf53.24.2

Video
ID                          : 0
Format                      : xvid
Codec ID                    : xvid
Duration                    : 2h 6mn
Bit rate                    : 2 200 Kbps
Width                       : 720 pixels
Height                      : 336 pixels
Display aspect ratio        : 2.143
Frame rate                  : 25.000 fps
Bits/(Pixel*Frame)          : 0.364
Stream size                 : 1.95 GiB (94%)

Audio
ID                          : 1
Format                      : MPEG Audio
Format version              : Version 1
Format profile              : Layer 3
Mode                        : Joint stereo
Mode extension              : MS Stereo
Codec ID                    : 55
Codec ID/Hint               : MP3
Duration                    : 2h 6mn
Bit rate mode               : Constant
Bit rate                    : 128 Kbps
Channel(s)                  : 2 channels
Sampling rate               : 44.1 KHz
Compression mode            : Lossy
Stream size                 : 116 MiB (5%)
Alignment                   : Aligned on interleaves
Interleave, duration        : 26 ms (0.65 video frame)
Writing library             : LAME3.98.4
Podobne torrenty
[DivX - XviD] Szybcy i wściekli 7 - Fast and Furious 7 *2015* [TS] [XviD-MORS] [ENG] [Napisy PL] [marcinc33]
[DivX - XviD] Szybcy i wściekli 7 - Fast and Furious 7 *2015* [480p] [TS] [AC3] [XviD-MORS] [ENG] [Napisy PL] [marcinc33]
[DivX - XviD] Szybcy i wściekli 7 - Fast and Furious 7 2015 [EXTENDED] [LQ] [BRRip] [XviD-MORS] [Lektor PL]
[DivX - XviD] Szybcy i wściekli - Fast and the Furious *2001* [DVDRip.XviD]
[DivX - XviD] Szybcy i wściekli 6 - Fast And Furious 6 *2013* [CAM.XviD-NYDIC] [ENG]
[DivX - XviD] Szybcy i wściekli 6 - Fast And Furious 6 *2013* [CAM] [XviD-GHW] [Napisy PL]
[Muzyka] Za szybcy za wściekli - 2 Fast 2 Furious - Soundtrack [mp3]
[DivX - XviD] Szybcy i wściekli - The Fast and the Furious *2001* [DVDRip.XviD] [Lektor PL]
[DivX - XviD] Szybcy i wściekli 5 - Fast & Furious 5: Rio Heist *2011* [TS.XviD] [Napisy PL]
[DivX - XviD] Szybcy i wściekli 6 - Fast And Furious 6 (2013) [WEB-DL] [XviD-MORS] [Napisy PL]
Szczegóły torrenta
Trackerudp://open.demonii.com:1337/announce
Multitracker udp://open.demonii.com:1337/announce
udp://9.rarbg.me:2710/announce
udp://glotorrents.pw:6969/announce
udp://tracker.leechers-paradise.org:6969/announce
http://bttracker.crunchbanglinux.org:6969/announce
http://torrent.gresille.org/announce

Kategoria:Filmy » DivX - XviD
Dodane04/04/2015 11:04:29
Ostatnie Uaktualnienie04/04/2015 11:44:35
Pokaż/Ukryj pliki:
19 plików
NIKT JESZCZE NIE DODAŁ KOMENTARZA

DODAJ KOMENTARZ
Więcej Emoticon



Wstecz

Żaden z opisanych na stronie plików nie jest przetrzymywany na serwerze. Administrator strony immortaltorrent.pl nie może ponieść konsekwencji prawnych za to co użytkownicy zamieszczają lub piszą na stronie.
Nie możesz używać tego serwisu do rozpowszechniania lub ściągania materiałów do których nie masz odpowiednich praw lub licencji. Użytkownicy zobowiązani są do przestrzeganie tych zasad.
Rejestracja konta jest jednoznaczna z akceptacją zasad.

2017 © immortaltorrent.pl


Najlepsze strony Torrentowe