Torrentów: 135517      Ranga: Gość               Stwórz konto Odzyskiwanie hasła


Kategorie
Filmy
 ⇒ DivX - XviD
 ⇒ RMVB
 ⇒ DVD-R
 ⇒ TV + Seriale
 ⇒ HDTV-HD
 ⇒ VCD - SVCD
 ⇒ x 264
 ⇒  3D
Gry
 ⇒ Gry PC
 ⇒ Gry Konsole
 ⇒ xbox360
Muzyka
 ⇒ Muzyka
 ⇒ Teledyski/Koncerty
Książki - Komiksy
 ⇒ E-Booki + Audio
 ⇒ Komiksy
Inne
 ⇒ XXX
 ⇒ Dla Dzieci
 ⇒ Sport
 ⇒ Pozostałe - Różne
 ⇒ Manga - Anime
 ⇒ GSM - PDA
Aplikacje
 ⇒ Windows
 ⇒ Linux + Macintosh



Detale torrenta

W pogoni za zemstą-Faster (2010) [BRRip 1080p x264 by alE13 AC3/DTS][Lektor i Napisy PL/Eng][Eng]
Kondycja:
Dodane: 09/06/2017
Rozmiar: 9.82 GB
Uploader: alE13

seed(ów): 1
leecher(ów): 0
Pobrane: 0





Ocena: N/A



http://www.imdb.com/title/tt1433108/
http://www.filmweb.pl/film/W+pogoni+za+zemst%C4%85-2010-521783

Audio DTS MA/Core w osobnym pliku.
Plik zawiera Sample.


reżyseria: George Tillman Jr.
scenariusz: Joe GaytonTony Gayton
gatunek: Dramat, Akcja
produkcja: USA
premiera: 24-11-2010
muzyka:         Clint Mansell
zdjęcia:        Michael Grady
czas:  1h 37min

opis:

An ex-con gets on a series of apparently unrelated killings. He gets tracked by a veteran cop with secrets
of his own and an egocentric hit man.

Po 10 latach spędzonych w więzieniu, Driver (Dwayne Johnson) myśli tylko o jednym – znalezieniu osób
odpowiedzialnych za brutalne morderstwo jego brata. Teraz, jako wolny człowiek motywowany straszną myślą,
rozpoczyna polowanie na wszystkie osoby zamieszane w tę zbrodnię. Tuż za nim podąża jednak dwóch mężczyzn,
którzy zrobią wszystko, by go powstrzymać – policyjny weteran (Billy Bob Thornton) i zawodowy zabójca
(Oliver Jackson-Cohen).

http://i.imgur.com/uRoqoeH.jpg
http://i.imgur.com/IDYUFPc.jpg
http://i.imgur.com/ehVE98F.jpg
http://i.imgur.com/iJwYQ4H.jpg

obsada:

Dwayne Johnson, Billy Bob Thornton, Tom Berenger, Maggie Grace

dane techniczne:

Faster (2010)-alE13_DTS.mka

Audio
ID                          : 1
Format                      : DTS
Format/Info                 : Digital Theater Systems
Format profile              : MA / Core
Mode                        : 16
Format settings, Endianness : Big
Codec ID                    : A_DTS
Duration                    : 1 h 37 min
Bit rate mode               : Variable / Constant
Bit rate                    : 2 971 kb/s / 1 509 kb/s
Channel(s)                  : 6 channels
Channel positions           : Front: L C R, Side: L R, LFE
Sampling rate               : 48.0 kHz
Frame rate                  : 93.750 FPS (512 spf)
Bit depth                   : 24 bits
Compression mode            : Lossless / Lossy
Stream size                 : 2.03 GiB (100%)

Faster (2010)-alE13.mkv
Format                      : Matroska
Format version              : Version 4 / Version 2
File size                   : 7.73 GiB
Duration                    : 1 h 37 min
Overall bit rate            : 11.3 Mb/s
Movie name                  : Faster (2010)-alE13
Encoded date                : UTC 2017-06-09 05:50:59
Writing application         : mkvmerge v8.1.0 ('Psychedelic Postcard') 64bit
Writing library             : libebml v1.3.1 + libmatroska v1.4.2
Cover                       : Yes
Attachments                 : cover.jpg

Video
ID                          : 1
Format                      : AVC
Format/Info                 : Advanced Video Codec
Format profile              : High@L4.1
Format settings, CABAC      : Yes
Format settings, ReFrames   : 2 frames
Codec ID                    : V_MPEG4/ISO/AVC
Duration                    : 1 h 37 min
Bit rate                    : 10.0 Mb/s
Width                       : 1 920 pixels
Height                      : 800 pixels
Display aspect ratio        : 2.40:1
Frame rate mode             : Constant
Frame rate                  : 23.976 (24000/1001) FPS
Color space                 : YUV
Chroma subsampling          : 4:2:0
Bit depth                   : 8 bits
Scan type                   : Progressive
Bits/(Pixel*Frame)          : 0.272
Stream size                 : 6.85 GiB (89%)
Title                       : Faster (2010)-alE13
Writing library             : x264 core 142
Default                     : Yes
Forced                      : No
Color range                 : Limited
Color primaries             : BT.709
Transfer characteristics    : BT.709
Matrix coefficients         : BT.709

Audio #1
ID                          : 2
Format                      : AC-3
Format/Info                 : Audio Coding 3
Mode extension              : CM (complete main)
Format settings, Endianness : Big
Codec ID                    : A_AC3
Duration                    : 1 h 37 min
Bit rate mode               : Constant
Bit rate                    : 640 kb/s
Channel(s)                  : 6 channels
Channel positions           : Front: L C R, Side: L R, LFE
Sampling rate               : 48.0 kHz
Frame rate                  : 31.250 FPS (1536 spf)
Compression mode            : Lossy
Stream size                 : 448 MiB (6%)
Title                       : Faster (2010)-alE13_AC3
Language                    : English
Default                     : No
Forced                      : No

Audio #2
ID                          : 3
Format                      : AC-3
Format/Info                 : Audio Coding 3
Mode extension              : CM (complete main)
Format settings, Endianness : Big
Codec ID                    : A_AC3
Duration                    : 1 h 37 min
Bit rate mode               : Constant
Bit rate                    : 640 kb/s
Channel(s)                  : 6 channels
Channel positions           : Front: L C R, Side: L R, LFE
Sampling rate               : 48.0 kHz
Frame rate                  : 31.250 FPS (1536 spf)
Compression mode            : Lossy
Stream size                 : 448 MiB (6%)
Title                       : Faster (2010)-alE13_AC3
Language                    : Polish
Default                     : Yes
Forced                      : No

Text #1
ID                          : 4
Format                      : UTF-8
Codec ID                    : S_TEXT/UTF8
Codec ID/Info               : UTF-8 Plain Text
Duration                    : 1 h 31 min
Bit rate                    : 36 b/s
Count of elements           : 846
Stream size                 : 24.4 KiB (0%)
Title                       : Faster (2010)-alE13
Language                    : Polish
Default                     : No
Forced                      : No

Text #2
ID                          : 5
Format                      : UTF-8
Codec ID                    : S_TEXT/UTF8
Codec ID/Info               : UTF-8 Plain Text
Duration                    : 1 h 35 min
Bit rate                    : 42 b/s
Count of elements           : 977
Stream size                 : 30.0 KiB (0%)
Title                       : Faster (2010)-alE13
Language                    : English
Default                     : No
Forced                      : No

Menu
00:00:00.000                : en:Chapter 01
00:07:51.012                : en:Chapter 02
00:11:59.844                : en:Chapter 03
00:20:57.089                : en:Chapter 04
00:24:29.342                : en:Chapter 05
00:30:38.836                : en:Chapter 06
00:35:46.768                : en:Chapter 07
00:43:30.565                : en:Chapter 08
00:47:07.533                : en:Chapter 09
00:54:53.039                : en:Chapter 10
00:59:17.178                : en:Chapter 11
01:07:08.566                : en:Chapter 12
01:11:28.242                : en:Chapter 13
01:17:09.082                : en:Chapter 14
01:23:05.563                : en:Chapter 15
01:28:45.361                : en:Chapter 16
Podobne torrenty
[DivX - XviD] W pogoni za zemstą - Faster 2010 [480p.BRRip.XviD.AC3-azjatycki] [51] [Lektor PL]
[DivX - XviD] W pogoni za zemstą - Faster (2010) [DVDRip] [XviD-NN] [Lektor PL]
[DivX - XviD] W pogoni za zemstą - Faster (2010) [DVDRip] [XviD-NN] [Lektor PL]
[DivX - XviD] W pogoni za zemstą - Faster *2010* [DVDRip] [XviD-EM0C0RE] [Lektor PL]
[HDTV-HD] Centurion (2010)[BRRip 1080p x264 by alE13 DTS/AC3][Lektor i Napisy PL/Eng][Eng]
[HDTV-HD] Irlandzki Szlak-Route Irish (2010)[BRRip 1080p x264 by alE13 DTS/AC3][Lektor i Napisy PL/Multi Sub][Eng]
[HDTV-HD] Ślepota śnieżna-Snowblind (2010)[BRRip 1080p x264 by alE13 AC3/DTS][Napisy PL/Eng][Ger]
[HDTV-HD] Szybcy i wściekli 8-The Fate of the Furious (2017)-alE13[BRRip 1080p x264 by alE13 AC3/DTS]Napisy PL/Eng][Eng]
[HDTV-HD] Coś-The Thing (1982)[BRRip 1080p x264 by alE13 AC3][Lektor i Napisy PL/Eng][Eng]
[HDTV-HD] Gladiator(2000)[BRRip 1080p x264 by alE13 AC3][Lektor i Napisy PL/Eng][Eng]
Szczegóły torrenta
Trackerhttp://tracker.devil-torrents.pl/announce
Multitracker http://tracker.devil-torrents.pl/announce
http://tracker.torrentyorg.pl/announce
udp://tracker.opentrackr.org:1337/announce
udp://tracker.leechers-paradise.org:6969/announce
udp://tracker.ilibr.org:80/announce
udp://tracker.coppersurfer.tk:6969/announce
udp://p4p.arenabg.ch:1337/announce
udp://inferno.demonoid.pw:3391/announce

Kategoria:Filmy » HDTV-HD
Dodane09/06/2017 08:06:33
Ostatnie Uaktualnienie09/06/2017 08:26:33
Pokaż/Ukryj pliki:
17 plików
NIKT JESZCZE NIE DODAŁ KOMENTARZA

DODAJ KOMENTARZ
Więcej Emoticon



Wstecz

Żaden z opisanych na stronie plików nie jest przetrzymywany na serwerze. Administrator strony immortaltorrent.pl nie może ponieść konsekwencji prawnych za to co użytkownicy zamieszczają lub piszą na stronie.
Nie możesz używać tego serwisu do rozpowszechniania lub ściągania materiałów do których nie masz odpowiednich praw lub licencji. Użytkownicy zobowiązani są do przestrzeganie tych zasad.
Rejestracja konta jest jednoznaczna z akceptacją zasad.

2017 © immortaltorrent.pl


Najlepsze strony Torrentowe