Torrentów: 145367      Ranga: Gosc               Stwórz konto Odzyskiwanie hasła


Kategorie
Filmy
 ⇒ DivX - XviD
 ⇒ RMVB
 ⇒ DVD-R
 ⇒ TV + Seriale
 ⇒ HDTV-HD
 ⇒ VCD - SVCD
 ⇒ x 264
 ⇒  3D
Gry
 ⇒ Gry PC
 ⇒ Gry Konsole
 ⇒ xbox360
Muzyka
 ⇒ Muzyka
 ⇒ Teledyski/Koncerty
Książki - Komiksy
 ⇒ E-Booki + Audio
 ⇒ Komiksy
Inne
 ⇒ XXX
 ⇒ Dla Dzieci
 ⇒ Sport
 ⇒ Pozostałe - Różne
 ⇒ Manga - Anime
 ⇒ GSM - PDA
Aplikacje
 ⇒ Windows
 ⇒ Linux + Macintosh



Detale torrenta

Beyounce - Crazy in love - By Sandy
Kondycja:
Dodane: 25/03/2010
Rozmiar: 40.38 MB
Uploader: Anonimowy
seed(ów): 1
leecher(ów): 0
Pobrane: 4





Ocena:

General

Complete name                    : Beyons-Crazy in love- By Sandy.DAT
Format                           : CDXA/MPEG-PS
File size                        : 40.2 MiB
Duration                         : 3mn 57s
Overall bit rate                 : 1 418 Kbps
Writing library                  : Created with Nero

Video

ID                               : 224 (0xE0)
Format                           : MPEG Video
Format version                   : Version 1
Format settings, BVOP            : Yes
Format settings, Matrix          : Default
Duration                         : 3mn 57s
Bit rate mode                    : Variable
Bit rate                         : 1 138 Kbps
Nominal bit rate                 : 1 100 Kbps
Width                            : 352 pixels
Height                           : 240 pixels
Display aspect ratio             : 4:3
Frame rate                       : 29.970 fps
Resolution                       : 8 bits
Scan type                        : Progressive
Bits/(Pixel*Frame)               : 0.449
Stream size                      : 32.2 MiB (80%)
Writing library                  : Ahead Nero

Audio

ID                               : 192 (0xC0)
Format                           : MPEG Audio
Format version                   : Version 1
Format profile                   : Layer 2
Duration                         : 3mn 57s
Bit rate mode                    : Constant
Bit rate                         : 224 Kbps
Channel(s)                       : 2 channels
Sampling rate                    : 44.1 KHz
Stream size                      : 6.34 MiB (16%)

http://i44.tinypic.com/2iu7wxy.jpg
Podobne torrenty
[XXX] Sandy Sweet - I Love Young Girls 3[avi]
[XXX] Sandy Sweet - I Love Young Girls
[XXX] Shy Love - Crazy Fucking Whores
[Teledyski/Koncerty] Beyonce featuring Jay Z - Crazy In Love
[Muzyka] Michael Buble - Crazy Love [2009]
[Teledyski/Koncerty] Robert Plant & Queen - Crazy Little Thing Called Love
[Muzyka] Michael Buble - Crazy Love (Hollywood Edition) [2010]
[Muzyka] Keith Urban - Love Pain And The Whole Crazy Tour Live (2008) [mp3@vbr]
[RMVB] Love is a Crazy Thing *2005* [DVDRip] [RMVB] [Napisy ENG] [Kino Azja]
[DivX - XviD] Kocha, Lubi, Szanuje - Crazy, Stupid, Love *2011* [480p] [BRRip.XviD] [AC3] [Lektor PL]
Szczegóły torrenta
Trackerhttp://fr33dom.h33t.com:3310/announce
Kategoria:Muzyka » Teledyski/Koncerty
Dodane25/03/2010 08:03:36
Ostatnie Uaktualnienie15/01/2013 16:22:44
NIKT JESZCZE NIE DODAŁ KOMENTARZA

DODAJ KOMENTARZ
Więcej Emoticon



Wstecz

Żaden z opisanych na stronie plików nie jest przetrzymywany na serwerze. Administrator strony immortaltorrent.pl nie może ponieść konsekwencji prawnych za to co użytkownicy zamieszczają lub piszą na stronie.
Nie możesz używać tego serwisu do rozpowszechniania lub ściągania materiałów do których nie masz odpowiednich praw lub licencji. Użytkownicy zobowiązani są do przestrzeganie tych zasad.
Rejestracja konta jest jednoznaczna z akceptacją zasad.

2018 © immortaltorrent.pl


Najlepsze strony Torrentowe