Torrentów: 135298      Ranga: Gość               Stwórz konto Odzyskiwanie hasła


Kategorie
Filmy
 ⇒ DivX - XviD
 ⇒ RMVB
 ⇒ DVD-R
 ⇒ TV + Seriale
 ⇒ HDTV-HD
 ⇒ VCD - SVCD
 ⇒ x 264
 ⇒  3D
Gry
 ⇒ Gry PC
 ⇒ Gry Konsole
 ⇒ xbox360
Muzyka
 ⇒ Muzyka
 ⇒ Teledyski/Koncerty
Książki - Komiksy
 ⇒ E-Booki + Audio
 ⇒ Komiksy
Inne
 ⇒ XXX
 ⇒ Dla Dzieci
 ⇒ Sport
 ⇒ Pozostałe - Różne
 ⇒ Manga - Anime
 ⇒ GSM - PDA
Aplikacje
 ⇒ Windows
 ⇒ Linux + Macintosh



Detale torrenta

Smoking-The Tuxedo (2002)[WEBRip 1080p x264 by alE13 AC3][Lektor i Napisy PL/Eng][Eng]
Kondycja:
Dodane: 02/12/2016
Rozmiar: 7.88 GB
Uploader: alE13

seed(ów): 1
leecher(ów): 2
Pobrane: 0





Ocena: N/A





http://www.filmweb.pl/Smoking
http://www.imdb.com/title/tt0290095/

reżyseria: Kevin Donovan
scenariusz: Michael Leeson,Michael J. Wilson,Matt Manfredi
gatunek: Komedia,Sensacyjny,Sci-Fi
produkcja: USA
premiera: 19-09-2002
muzyka:         Christophe Beck,John Debney
zdjęcia:        Stephen F. Windon
czas:           1h 38mn

opis:

A hapless chauffer must take a comatosed secret agent's place using his special gadget-laden tuxedo.

Niezdarny szofer zastępuje tajnego agenta w jego misji. Do pomocy używa specjalnego smokingu, dzięki
któremu opanowuje sztuki walki.

obsada:

Jackie Chan, Jennifer Love Hewitt, Jason Isaacs

dane techniczne:

The Tuxedo (2002)-alE13.mkv
Format                      : Matroska
Format version              : Version 4 / Version 2
File size                   : 7.82 GiB
Duration                    : 1 h 38 min
Overall bit rate            : 11.3 Mb/s
Movie name                  : The Tuxedo (2002)-alE13
Encoded date                : UTC 2016-12-02 07:39:54
Writing application         : mkvmerge v8.1.0 ('Psychedelic Postcard') 64bit
Writing library             : libebml v1.3.1 + libmatroska v1.4.2
Cover                       : Yes
Attachments                 : cover.jpg

Video
ID                          : 1
Format                      : AVC
Format/Info                 : Advanced Video Codec
Format profile              : High@L4.1
Format settings, CABAC      : Yes
Format settings, ReFrames   : 2 frames
Codec ID                    : V_MPEG4/ISO/AVC
Duration                    : 1 h 38 min
Bit rate                    : 10.4 Mb/s
Width                       : 1 920 pixels
Height                      : 1 080 pixels
Display aspect ratio        : 16:9
Frame rate mode             : Constant
Frame rate                  : 23.976 (24000/1001) FPS
Color space                 : YUV
Chroma subsampling          : 4:2:0
Bit depth                   : 8 bits
Scan type                   : Progressive
Bits/(Pixel*Frame)          : 0.210
Stream size                 : 7.20 GiB (92%)
Title                       : The Tuxedo (2002)-alE13
Writing library             : x264 core 142
Default                     : Yes
Forced                      : No
Color range                 : Limited
Color primaries             : BT.709
Transfer characteristics    : BT.709
Matrix coefficients         : BT.709

Audio #1
ID                          : 2
Format                      : AC-3
Format/Info                 : Audio Coding 3
Mode extension              : CM (complete main)
Format settings, Endianness : Big
Codec ID                    : A_AC3
Duration                    : 1 h 38 min
Bit rate mode               : Constant
Bit rate                    : 640 kb/s
Channel(s)                  : 6 channels
Channel positions           : Front: L C R, Side: L R, LFE
Sampling rate               : 48.0 kHz
Frame rate                  : 31.250 FPS (1536 spf)
Bit depth                   : 16 bits
Compression mode            : Lossy
Stream size                 : 452 MiB (6%)
Title                       : The Tuxedo (2002)-alE13
Language                    : English
Default                     : No
Forced                      : No

Audio #2
ID                          : 3
Format                      : AC-3
Format/Info                 : Audio Coding 3
Mode extension              : CM (complete main)
Format settings, Endianness : Big
Codec ID                    : A_AC3
Duration                    : 1 h 38 min
Bit rate mode               : Constant
Bit rate                    : 256 kb/s
Channel(s)                  : 2 channels
Channel positions           : Front: L R
Sampling rate               : 48.0 kHz
Frame rate                  : 31.250 FPS (1536 spf)
Bit depth                   : 16 bits
Compression mode            : Lossy
Delay relative to video     : 1 s 550 ms
Stream size                 : 181 MiB (2%)
Title                       : The Tuxedo (2002)-alE13
Language                    : Polish
Default                     : Yes
Forced                      : No

Text #1
ID                          : 4
Format                      : UTF-8
Codec ID                    : S_TEXT/UTF8
Codec ID/Info               : UTF-8 Plain Text
Duration                    : 1 h 32 min
Bit rate                    : 60 b/s
Count of elements           : 1297
Stream size                 : 40.7 KiB (0%)
Title                       : The Tuxedo (2002)-alE13
Language                    : Polish
Default                     : Yes
Forced                      : No

Text #2
ID                          : 5
Format                      : UTF-8
Codec ID                    : S_TEXT/UTF8
Codec ID/Info               : UTF-8 Plain Text
Duration                    : 1 h 34 min
Bit rate                    : 65 b/s
Count of elements           : 1257
Stream size                 : 45.6 KiB (0%)
Title                       : The Tuxedo (2002)-alE13
Language                    : English
Default                     : No
Forced                      : No

Menu
00:00:00.000                : en: Aqua La Vista (Main Titles)
00:03:36.800                : en: Art Gallery/Bike Messenger
00:08:12.158                : en: House Rules
00:10:51.650                : en: Meet Clark Devlin
00:13:17.087                : en: CSA Headquarters/Bug Store
00:19:14.778                : en: Skateboard Bomb
00:24:43.356                : en: Banning International
00:27:08.584                : en: Tuxedo Demo
00:31:23.005                : en: Nice Rack
00:35:34.506                : en: Rope Fighting
00:41:18.724                : en: A Little Over Amped
00:44:48.516                : en: Meet James Brown
00:49:04.439                : en: The Last Emperor of Soul
00:57:09.202                : en: Cheryl's Hospitality Suite
01:05:19.329                : en: Walk on Water
01:12:30.384                : en: "Clark Devlin" Is Back
01:17:33.353                : en: The Tuxedo vs. The Suit
01:22:37.490                : en: Awaiting the Queen
01:28:35.180                : en: Operation Art Gallery
01:33:12.249                : en: Outtakes (End Credits)
01:38:41.246                : en: Aqua La Vista (Main Titles)
Podobne torrenty
[HDTV-HD] Imperium-Empire (2002)[WEBRip 1080p x264 by alE13 AC3][Lektor i Napisy PL/Eng][Eng]
[DivX - XviD] Smoking - The Tuxedo *2002* [DVDRip.XviD] [Lektor PL]
[DivX - XviD] Jackie Chan Collection - Part 12/64 - Smoking - Tuxedo *2002* [DVDRip] [XviD] [Napisy PL]
[HDTV-HD] Equilibrium (2002)[BRRip 1080p x264 by alE13 AC3][Lektor i Napisy PL/Eng][Eng]
[HDTV-HD] Nevada Smith (1966)[WEBRip.1080p.x264 by alE13.AC3][Lektor i Napisy PL/Eng][Eng]
[HDTV-HD] Tajemnica Syriusza-Screamers (1995)[WEBRip 1080p x264 by alE13 AC3][Lektor i Napisy PL/Eng][Eng]
[HDTV-HD] Czarownice z Salem-The Crucible (1996)[WEBRip 1080p x264 by alE13 AC3][Lektor i napisy PL/Eng][Eng]
[HDTV-HD] Przyciąganie-Attraction (2017)[WEBRip 1080p x264 by alE13 AC3][Napisy PL/Eng][Eng]
[HDTV-HD] Kradzież-Larceny (2017)[WEBRip 1080p x264 by alE13 AC3][Napisy PL][Eng]
[x 264] Siedmiu wspaniałych-The Magnificent Seven (2016)[WEBRip 1080p x264 by alE13 AC3][Napisy PL/Eng][Eng]
Szczegóły torrenta
Trackerhttp://agusiq-torrents.pl:6969/announce
Multitracker http://agusiq-torrents.pl:6969/announce
http://pow7.com:80/announce
http://pow7.com/announce
http://tracker.tfile.me/announce
http://retracker.omsk.ru:2710/announce
http://mgtracker.org:2710/announce
udp://tracker.leechers-paradise.org:6969/announce
http://mgtracker.org:2710/announce
http://pow7.com:80/announce
http://pow7.com/announce
http://tracker.torrentyorg.pl/announce
udp://inferno.demonoid.ooo:3392/announce
udp://inferno.demonoid.pw:3393/announce
udp://tracker.coppersurfer.tk:6969/announce

Kategoria:Filmy » HDTV-HD
Dodane02/12/2016 09:12:06
Ostatnie Uaktualnienie02/12/2016 09:21:06
Pokaż/Ukryj pliki:
16 plików
NIKT JESZCZE NIE DODAŁ KOMENTARZA

DODAJ KOMENTARZ
Więcej Emoticon



Wstecz

Żaden z opisanych na stronie plików nie jest przetrzymywany na serwerze. Administrator strony immortaltorrent.pl nie może ponieść konsekwencji prawnych za to co użytkownicy zamieszczają lub piszą na stronie.
Nie możesz używać tego serwisu do rozpowszechniania lub ściągania materiałów do których nie masz odpowiednich praw lub licencji. Użytkownicy zobowiązani są do przestrzeganie tych zasad.
Rejestracja konta jest jednoznaczna z akceptacją zasad.

2017 © immortaltorrent.pl


Najlepsze strony Torrentowe