Torrentów: 145326      Ranga: Gosc               Stwórz konto Odzyskiwanie hasła


Kategorie
Filmy
 ⇒ DivX - XviD
 ⇒ RMVB
 ⇒ DVD-R
 ⇒ TV + Seriale
 ⇒ HDTV-HD
 ⇒ VCD - SVCD
 ⇒ x 264
 ⇒  3D
Gry
 ⇒ Gry PC
 ⇒ Gry Konsole
 ⇒ xbox360
Muzyka
 ⇒ Muzyka
 ⇒ Teledyski/Koncerty
Książki - Komiksy
 ⇒ E-Booki + Audio
 ⇒ Komiksy
Inne
 ⇒ XXX
 ⇒ Dla Dzieci
 ⇒ Sport
 ⇒ Pozostałe - Różne
 ⇒ Manga - Anime
 ⇒ GSM - PDA
Aplikacje
 ⇒ Windows
 ⇒ Linux + Macintosh



Detale torrenta

Sheena: królowa dżungli /Sheena (1984)[WEBRip 1080p x264 by alE13 AC3][Lektor i Napisy PL/Eng][Eng]
Kondycja:
Dodane: 08/08/2018
Rozmiar: 8.11 GB
Uploader: alE13

seed(ów): 1
leecher(ów): 1
Pobrane: 0





Ocena: N/A

[img]https://i.imgur.com/w0A2tpH.jpg[/img]

https://www.imdb.com/title/tt0088103/
https://www.filmweb.pl/film/Sheena+-+kr%C3%B3lowa+d%C5%BCungli-1984-37156

Plik zawiera sample.

reżyseria: John Guillermin
scenariusz: David Newman,Lorenzo Semple Jr.
gatunek: Przygodowy
produkcja: USA,Wielka Brytania
premiera: 17-08-1984
muzyka:         Richard Hartley
zdjÄ™cia:        Pasqualino De Santis
czas:           1 h 56 min

opis:

Sheena grew up in the African wild, raised by a mystical witch woman. When her foster mother
is framed for a murder Sheena is forced to flee, helped by her ability to talk to animals and
her knowledge of the jungle.

Ekranizacja komiksu o dziewczynie, której biali rodzice zostali zamordowani na Safari, a ona wychowana
została przez szamankę z jednego z afrykańskich plemion. Pewnego razu gdy jej przybrana matka zostaje
wrobiona w morderstwo, Sheena musi uciekać i uważać na najemców prawdziwego mordercy, który chce ją zgładzić.
Ukrywając się w dżungli rozumiejąca mowę zwierząt Shenna organizuje je i z ich pomocą idzie pomścić matkę.
Pomaga jej dziennikarz Vic.

http://i.imgur.com/hdFcQVd.jpg
http://i.imgur.com/S8Dp5Zl.jpg
http://i.imgur.com/Ww1E0ec.jpg
http://i.imgur.com/Ra8nYFx.jpg

obsada:

Tanya Roberts, Ted Wass, Donovan Scott

dane techniczne:

Sheena (1984)-alE13.mkv
Format                      : Matroska
Format version              : Version 4 / Version 2
File size                   : 8.05 GiB
Duration                    : 1 h 56 min
Overall bit rate            : 9 901 kb/s
Movie name                  : Sheena (1984)-alE13
Encoded date                : UTC 2018-08-08 04:07:48
Writing application         : mkvmerge v8.1.0 (\'Psychedelic Postcard\') 64bit
Writing library             : libebml v1.3.1 + libmatroska v1.4.2
Cover                       : Yes
Attachments                 : Cover.jpg

Video
ID                          : 1
Format                      : AVC
Format/Info                 : Advanced Video Codec
Format profile              : High@L4.1
Format settings             : CABAC / 2 Ref Frames
Format settings, CABAC      : Yes
Format settings, ReFrames   : 2 frames
Codec ID                    : V_MPEG4/ISO/AVC
Duration                    : 1 h 56 min
Bit rate                    : 9 259 kb/s
Width                       : 1 916 pixels
Height                      : 816 pixels
Display aspect ratio        : 2.35:1
Frame rate mode             : Constant
Frame rate                  : 23.976 (24000/1001) FPS
Color space                 : YUV
Chroma subsampling          : 4:2:0
Bit depth                   : 8 bits
Scan type                   : Progressive
Bits/(Pixel*Frame)          : 0.247
Stream size                 : 7.53 GiB (94%)
Title                       : Sheena (1984)-alE13
Writing library             : x264 core 142
Default                     : Yes
Forced                      : No
Color range                 : Limited
Color primaries             : BT.709
Transfer characteristics    : BT.709
Matrix coefficients         : BT.709

Audio #1
ID                          : 2
Format                      : AC-3
Format/Info                 : Audio Coding 3
Codec ID                    : A_AC3
Duration                    : 1 h 56 min
Bit rate mode               : Constant
Bit rate                    : 384 kb/s
Channel(s)                  : 2 channels
Channel positions           : Front: L R
Sampling rate               : 48.0 kHz
Frame rate                  : 31.250 FPS (1536 SPF)
Bit depth                   : 16 bits
Compression mode            : Lossy
Stream size                 : 320 MiB (4%)
Title                       : Sheena (1984)-alE13_AC3
Language                    : English
Service kind                : Complete Main
Default                     : No
Forced                      : No

Audio #2
ID                          : 4
Format                      : AC-3
Format/Info                 : Audio Coding 3
Codec ID                    : A_AC3
Duration                    : 1 h 56 min
Bit rate mode               : Constant
Bit rate                    : 256 kb/s
Channel(s)                  : 2 channels
Channel positions           : Front: L R
Sampling rate               : 48.0 kHz
Frame rate                  : 31.250 FPS (1536 SPF)
Bit depth                   : 16 bits
Compression mode            : Lossy
Delay relative to video     : 10 ms
Stream size                 : 213 MiB (3%)
Title                       : Sheena (1984)-alE13_AC3
Language                    : Polish
Service kind                : Complete Main
Default                     : Yes
Forced                      : No

Text #1
ID                          : 3
Format                      : UTF-8
Codec ID                    : S_TEXT/UTF8
Codec ID/Info               : UTF-8 Plain Text
Duration                    : 1 h 52 min
Bit rate                    : 29 b/s
Count of elements           : 704
Stream size                 : 24.5 KiB (0%)
Title                       : Sheena (1984)-alE13
Language                    : Polish
Default                     : No
Forced                      : No

Text #2
ID                          : 5
Format                      : UTF-8
Codec ID                    : S_TEXT/UTF8
Codec ID/Info               : UTF-8 Plain Text
Duration                    : 1 h 52 min
Bit rate                    : 29 b/s
Count of elements           : 700
Stream size                 : 24.3 KiB (0%)
Title                       : Sheena (1984)-alE13
Language                    : English
Default                     : No
Forced                      : No

Menu
00:00:00.000                : en:01. Start
00:16:27.738                : en:02. Billion Dollar Confirmation
00:18:57.587                : en:03. Shower Under The Falls
00:19:17.692                : en:04. The Shaman\'s Vision
00:20:55.405                : en:05. Fletcher & Vic
00:23:39.920                : en:06. A Royal Welcome
00:25:04.254                : en:07. Under Arrest
00:27:08.362                : en:08. Co-Conspirators
00:29:59.949                : en:09. The Assassination
00:32:26.563                : en:10. A Good Frame
00:34:24.464                : en:11. Prison Break
00:39:10.599                : en:12. \"Do You Want To Die?\"
00:44:17.590                : en:13. The Flame Departs
00:48:31.527                : en:14. Danger!
00:50:02.101                : en:15. A Leg Up
00:54:33.889                : en:16. Morning Glory
00:58:35.780                : en:17. Chemistry
01:02:56.207                : en:18. Road Block
01:07:30.281                : en:19. Taking Without Asking
01:11:05.997                : en:20. The Land Roars
01:14:07.278                : en:21. The Fire Arrow
01:18:03.046                : en:22. Firebird Pursuit
01:19:45.416                : en:23. Forcing A Surrender
01:23:54.698                : en:24. Sheena In Chains
01:31:48.755                : en:25. Zanda\'s Airshow
01:39:51.237                : en:26. View To A Kill
01:44:41.043                : en:27. Zambouli Avenged
01:47:51.500                : en:28. The Healing Earth

Podobne torrenty
[HDTV-HD] Klasa 1984-Class of 1984 (1982)[BRRip 1080p x264 by alE13 AC3][Lektor i Napisy PL/Eng][Eng]
[HDTV-HD] Punkt Zapalny-Flashpoint (1984)[BDRip 1080p x264 by alE13 AC3][Lektor i Napisy PL/Eng][Eng]
[HDTV-HD] Purpurowy Deszcz-Purple Rain (1984)[BRRip 1080p x264 by alE13 AC3/DTS][Lektor i Napisy PL/Eng][Eng]
[HDTV-HD] Zło, które czyni człowiek/The Evil That Men Do (1984)[BDRip 1080p x264 by alE13 AC3][Lektor i Napisy Eng][Eng]
[HDTV-HD] Grandview, U.S.A. (1984)[BRRip 1080p x264 by alE13 AC3/DTS][Napisy PL/Eng][Eng]
[HDTV-HD] Razorback (1984)[Remastered][BRRip 1080p x264 by alE13 AC3/DTS][Napisy PL/Eng][Eng]
[HDTV-HD] Bugsy (1991)[WebRip 1080p x264 by alE13 AC3][Lektor i Napisy PL/Eng][Eng]
[HDTV-HD] Nocny Lot-Red Eye (2005)[WEBRip 1080p x264 by alE13 AC3][Lektor i Napisy PL/Eng][Eng]
[HDTV-HD] Solo (1996) [WEBRip 1080p x264 by alE13 AC3][Lektor i Napisy PL/Eng][Eng]
[HDTV-HD] Switch (1991) [WEBRip 1080p x264 by alE13 AC3][Lektor i Napisy PL/Eng][Eng]
Szczegóły torrenta
Trackerudp://tracker.opentrackr.org:1337/announce
Multitracker udp://tracker.opentrackr.org:1337/announce
udp://tracker.coppersurfer.tk:6969/announce
udp://tracker.leechers-paradise.org:6969/announce
udp://inferno.demonoid.pw:3391/announce
http://tracker.torrentyorg.pl/announce
udp://p4p.arenabg.ch:1337/announce
http://tracker.devil-torrents.pl/announce
udp://tracker.ilibr.org:80/announce

Kategoria:Filmy » HDTV-HD
Dodane08/08/2018 08:08:00
Ostatnie Uaktualnienie08/08/2018 08:33:01
Pokaż/Ukryj pliki:
15 plików
NIKT JESZCZE NIE DODAŁ KOMENTARZA

DODAJ KOMENTARZ
Więcej Emoticon



Wstecz

Żaden z opisanych na stronie plików nie jest przetrzymywany na serwerze. Administrator strony immortaltorrent.pl nie może ponieść konsekwencji prawnych za to co użytkownicy zamieszczają lub piszą na stronie.
Nie możesz używać tego serwisu do rozpowszechniania lub ściągania materiałów do których nie masz odpowiednich praw lub licencji. Użytkownicy zobowiązani są do przestrzeganie tych zasad.
Rejestracja konta jest jednoznaczna z akceptacją zasad.

2018 © immortaltorrent.pl


Najlepsze strony Torrentowe