Torrentów: 137126      Ranga: Gość               Stwórz konto Odzyskiwanie hasła


Kategorie
Filmy
 ⇒ DivX - XviD
 ⇒ RMVB
 ⇒ DVD-R
 ⇒ TV + Seriale
 ⇒ HDTV-HD
 ⇒ VCD - SVCD
 ⇒ x 264
 ⇒  3D
Gry
 ⇒ Gry PC
 ⇒ Gry Konsole
 ⇒ xbox360
Muzyka
 ⇒ Muzyka
 ⇒ Teledyski/Koncerty
Książki - Komiksy
 ⇒ E-Booki + Audio
 ⇒ Komiksy
Inne
 ⇒ XXX
 ⇒ Dla Dzieci
 ⇒ Sport
 ⇒ Pozostałe - Różne
 ⇒ Manga - Anime
 ⇒ GSM - PDA
Aplikacje
 ⇒ Windows
 ⇒ Linux + Macintosh



Detale torrenta

Czarny Motyl-Black Butterfly (2017)[BRRip 1080p x264 by alE13 AC3/DTS][Napisy PL/Eng/Fre][Eng/Fre]
Kondycja:
Dodane: 09/07/2017
Rozmiar: 12.44 GB
Uploader: alE13

seed(ów): 1
leecher(ów): 0
Pobrane: 0





Ocena: N/A



http://www.imdb.com/title/tt2090465/
http://www.filmweb.pl/film/Czarny+motyl-2017-775494

Audio DTS-TrueHD w osobnym pliku.
Plik zawiera sample.
Napisy PL wpalone w film.


reżyseria: Brian Goodman
scenariusz: Justin Stanley,Marc Frydman
gatunek: Thriller
produkcja: USA
premiera: 26-05-2017
zdjęcia:        José David Montero
czas:           1h 33min

opis:

Outside a mountain town grappling with a series of abductions and murders, Paul (Antonio Banderas),
a reclusive writer, struggles to start what he hopes will be a career-saving screenplay. After a tense
encounter at a diner with a drifter named Jack (Jonathan Rhys Meyers), Paul offers Jack a place to
stay-and soon the edgy, demanding Jack muscles his way into Paul's work. As a storm cuts off power
to the isolated cabin, the two men begin a jagged game of one-upmanship that will bring at least one
tale to an end.

W położonym w górach miasteczku miała miejsce seria niewyjaśnionych porwań i zabójstw. Jednym z mieszkańców
jest żyjący na uboczu Paul, sławny niegdyś pisarz, który przeżywa kryzys twórczy. Mężczyzna ma nadzieję,
że uda mu się stworzyć rewelacyjny scenariusz i tym samym ocalić swoją karierę. Pewnego dnia spotyka na swojej
drodze włóczęgę o imieniu Jack i proponuje mu nocleg u siebie w domu.

http://i.imgur.com/UX0HOoA.jpg
http://i.imgur.com/oaDhoeZ.jpg
http://i.imgur.com/SVd0gjt.jpg
http://i.imgur.com/wJr6Aar.jpg

obsada:

Antonio Banderas, Jonathan Rhys Meyers, Piper Perabo

dane techniczne:

Audio:

Black Butterfly (2017)-alE13_TrueHD.mka

Hash: BD8B066F10480A0B
Format: Matroska
Czas: 01:33:34.234
Rozmiar: 4.26 GiB (4572408522)

Audio (0):
Kodek:         (TrueHD) TrueHD
Format:       TrueHD
Kanały:       6 channels
BitRate:       3 329 kb/s
Tytuł:         Black Butterfly (2017)-alE13_TrueHD
Język:       English

Audio (1):
Kodek:         (TrueHD) TrueHD
Format:       TrueHD
Kanały:       6 channels
BitRate:       3 030 kb/s
Tytuł:         Black Butterfly (2017)-alE13_TrueHD
Język:       French

Napisy (0):
Kodek:         (S_HDMV/PGS) PGS
Format:       PGS
Język:       English (Black Butterfly (2017)-alE13_TrueHD)

Napisy (1):
Kodek:         (S_HDMV/PGS) PGS
Format:       PGS
Język:       French (Black Butterfly (2017)-alE13_TrueHD)

Napisy (2):
Kodek:         (S_HDMV/PGS) PGS
Format:       PGS
Język:       French (Black Butterfly (2017)-alE13_TrueHD)

Movie:

Black Butterfly (2017)-alE13.mkv
Format                      : Matroska
Format version              : Version 4 / Version 2
File size                   : 8.13 GiB
Duration                    : 1 h 33 min
Overall bit rate            : 12.4 Mb/s
Movie name                  : Black Butterfly (2017)-alE13
Encoded date                : UTC 2017-07-09 06:35:53
Writing application         : mkvmerge v8.1.0 ('Psychedelic Postcard') 64bit
Writing library             : libebml v1.3.1 + libmatroska v1.4.2
Cover                       : Yes
Attachments                 : Cover.jpg

Video
ID                          : 1
Format                      : AVC
Format/Info                 : Advanced Video Codec
Format profile              : High@L4.1
Format settings, CABAC      : Yes
Format settings, ReFrames   : 2 frames
Codec ID                    : V_MPEG4/ISO/AVC
Duration                    : 1 h 33 min
Bit rate                    : 11.1 Mb/s
Width                       : 1 920 pixels
Height                      : 1 080 pixels
Display aspect ratio        : 16:9
Frame rate mode             : Constant
Frame rate                  : 23.976 (24000/1001) FPS
Color space                 : YUV
Chroma subsampling          : 4:2:0
Bit depth                   : 8 bits
Scan type                   : Progressive
Bits/(Pixel*Frame)          : 0.224
Stream size                 : 7.28 GiB (90%)
Title                       : Black Butterfly (2017)-alE13
Writing library             : x264 core 142
Default                     : Yes
Forced                      : No
Color range                 : Limited
Color primaries             : BT.709
Transfer characteristics    : BT.709
Matrix coefficients         : BT.709

Audio #1
ID                          : 2
Format                      : AC-3
Format/Info                 : Audio Coding 3
Mode extension              : CM (complete main)
Format settings, Endianness : Big
Codec ID                    : A_AC3
Duration                    : 1 h 33 min
Bit rate mode               : Constant
Bit rate                    : 640 kb/s
Channel(s)                  : 6 channels
Channel positions           : Front: L C R, Side: L R, LFE
Sampling rate               : 48.0 kHz
Frame rate                  : 31.250 FPS (1536 spf)
Compression mode            : Lossy
Stream size                 : 428 MiB (5%)
Title                       : Black Butterfly (2017)-alE13_AC3
Language                    : English
Default                     : Yes
Forced                      : No

Audio #2
ID                          : 3
Format                      : AC-3
Format/Info                 : Audio Coding 3
Mode extension              : CM (complete main)
Format settings, Endianness : Big
Codec ID                    : A_AC3
Duration                    : 1 h 33 min
Bit rate mode               : Constant
Bit rate                    : 640 kb/s
Channel(s)                  : 6 channels
Channel positions           : Front: L C R, Side: L R, LFE
Sampling rate               : 48.0 kHz
Frame rate                  : 31.250 FPS (1536 spf)
Compression mode            : Lossy
Stream size                 : 428 MiB (5%)
Title                       : Black Butterfly (2017)-alE13_AC3
Language                    : French
Default                     : No
Forced                      : No

Text #1
ID                          : 4
Format                      : PGS
Muxing mode                 : zlib
Codec ID                    : S_HDMV/PGS
Codec ID/Info               : Picture based subtitle format used on BDs/HD-DVDs
Duration                    : 1 h 26 min
Bit rate                    : 10.9 kb/s
Count of elements           : 1546
Stream size                 : 6.75 MiB (0%)
Title                       : Black Butterfly (2017)-alE13
Language                    : English
Default                     : No
Forced                      : No

Text #2
ID                          : 5
Format                      : PGS
Muxing mode                 : zlib
Codec ID                    : S_HDMV/PGS
Codec ID/Info               : Picture based subtitle format used on BDs/HD-DVDs
Duration                    : 1 h 27 min
Bit rate                    : 11.7 kb/s
Count of elements           : 1557
Stream size                 : 7.29 MiB (0%)
Title                       : Black Butterfly (2017)-alE13
Language                    : French
Default                     : No
Forced                      : No

Text #3
ID                          : 6
Format                      : PGS
Muxing mode                 : zlib
Codec ID                    : S_HDMV/PGS
Codec ID/Info               : Picture based subtitle format used on BDs/HD-DVDs
Duration                    : 1 h 27 min
Bit rate                    : 12 b/s
Count of elements           : 4
Stream size                 : 7.81 KiB (0%)
Title                       : Black Butterfly (2017)-alE13
Language                    : French
Default                     : No
Forced                      : No

Menu
00:00:00.000                : en:Chapter 1
00:14:32.955                : en:Chapter 2
00:31:35.518                : en:Chapter 3
00:41:58.806                : en:Chapter 4
00:52:07.415                : en:Chapter 5
01:03:54.539                : en:Chapter 6
01:14:47.524                : en:Chapter 7
01:28:36.978                : en:Chapter 8
Podobne torrenty
[DivX - XviD] Czarny motyl / Black Butterfly (2017) [BDRip] [XviD-KiT] [Lektor PL]
[HDTV-HD] Szybcy i wściekli 8-The Fate of the Furious (2017)-alE13[BRRip 1080p x264 by alE13 AC3/DTS]Napisy PL/Eng][Eng]
[x 264] Czarny deszcz - Black Rain (1989) [BRRip.1080p.x264.DTS/AC3][Napisy PL/Eng][Eng]
[HDTV-HD] Aftermath (2017)[BRRip 1080p x264 by alE13 AC3][Napisy PL/Eng][Eng]
[HDTV-HD] Ochroniarz-Security (2017)[BRRip 1080p x264 by alE13 AC3/DTS][Napisy PL/Eng/Fre][Eng]
[HDTV-HD] Bunt-Revolt (2017)[BRRip 1080p x264 by alE13 AC3/DTS][Napisy PL/Eng][Eng]
[HDTV-HD] John Wick 2 (2017)[BRRip 1080p x264 by alE13 AC3/TrueHD][Napisy PL/Eng][Eng]
[HDTV-HD] Tożsamość zdrajcy-Unlocked (2017)[BRRip 1080p x264 by alE13 AC3/DTS][Napisy PL/Eng][Eng]
[HDTV-HD] 2Pack:Legenda-All Eyez on Me (2017)[BRRip 1080p x264 by alE13 AC3/DTS][Napisy PL/Eng/Esp][Eng]
[ 3D] Mumia-The Mummy 3D (2017)[BRRip 1080p x264 by alE13 AC3/DTS][Lektor i Napisy PL/Eng][Eng]
Szczegóły torrenta
Trackerhttp://tracker.devil-torrents.pl/announce
Multitracker http://tracker.devil-torrents.pl/announce
http://tracker.torrentyorg.pl/announce
udp://tracker.opentrackr.org:1337/announce
udp://tracker.leechers-paradise.org:6969/announce
udp://tracker.ilibr.org:80/announce
udp://tracker.coppersurfer.tk:6969/announce
udp://p4p.arenabg.ch:1337/announce
udp://inferno.demonoid.pw:3391/announce

Kategoria:Filmy » HDTV-HD
Dodane09/07/2017 09:07:54
Ostatnie Uaktualnienie09/07/2017 09:27:54
Pokaż/Ukryj pliki:
13 plików
 

 Dodał: alE13     2017-07-09 14:14:32

 Dodał: alE13 Data: 2017-07-09 14:11:44
[Raport]
Uwaga linie dialogów o czasie jak niżej powinny być takie:

45
00:07:30,846 --> 00:07:32,716
Dziś
płacisz?

46
00:07:33,616 --> 00:07:36,686
Dam
Hankowi w środę.

DELETE

DODAJ KOMENTARZ
Więcej Emoticon



Wstecz

Żaden z opisanych na stronie plików nie jest przetrzymywany na serwerze. Administrator strony immortaltorrent.pl nie może ponieść konsekwencji prawnych za to co użytkownicy zamieszczają lub piszą na stronie.
Nie możesz używać tego serwisu do rozpowszechniania lub ściągania materiałów do których nie masz odpowiednich praw lub licencji. Użytkownicy zobowiązani są do przestrzeganie tych zasad.
Rejestracja konta jest jednoznaczna z akceptacją zasad.

2017 © immortaltorrent.pl


Najlepsze strony Torrentowe