Torrentów: 138578      Ranga: Go¶ć               Stwórz konto Odzyskiwanie hasła


Kategorie
Filmy
 ⇒ DivX - XviD
 ⇒ RMVB
 ⇒ DVD-R
 ⇒ TV + Seriale
 ⇒ HDTV-HD
 ⇒ VCD - SVCD
 ⇒ x 264
 ⇒  3D
Gry
 ⇒ Gry PC
 ⇒ Gry Konsole
 ⇒ xbox360
Muzyka
 ⇒ Muzyka
 ⇒ Teledyski/Koncerty
Ksi±żki - Komiksy
 ⇒ E-Booki + Audio
 ⇒ Komiksy
Inne
 ⇒ XXX
 ⇒ Dla Dzieci
 ⇒ Sport
 ⇒ Pozostałe - Różne
 ⇒ Manga - Anime
 ⇒ GSM - PDA
Aplikacje
 ⇒ Windows
 ⇒ Linux + Macintosh



Detale torrenta

xXx: Reaktywacja-xXx: Return of Xander Cage 3D (2017)[BRRip 1080p x264 by alE13 AC3/DTS][Lektor i Napisy PL/Eng][Eng]
Kondycja:
Dodane: 26/05/2017
Rozmiar: 12.25 GB
Uploader: alE13

seed(ów): 1
leecher(ów): 0
Pobrane: 0





Ocena: N/A



http://www.imdb.com/title/tt1293847/
http://www.filmweb.pl/film/xXx%3A+Reaktywacja-2017-494092

Film w wersji 3D Half Over/Under.
Audio DTS-Atmos/TrueHD (8 CH.)w osobnym pliku.
Plik zawiera Sample.


reżyseria: D.J. Caruso
scenariusz: F. Scott Frazier
gatunek: Akcja
produkcja: USA
premiera: 05-01-2017
muzyka: Brian Tyler,Robert Lydecker
zdjęcia: Russell Carpenter
czas: 01:46:44

opis:

Xander Cage is left for dead after an incident, though he secretly returns to action for a new, tough assignment with
his handler Augustus Gibbons.

Xander Cage musi odzyskać urz±dzenie, które kontroluje każdego wojskowego satelitę na ¶wiecie.

http://i.imgur.com/Qm93BJH.jpg
http://i.imgur.com/8kax0wE.jpg
http://i.imgur.com/XygmjB2.jpg
http://i.imgur.com/74Bvj9q.jpg

obsada:

Vin Diesel, Donnie Yen, Deepika Padukone

dane techniczne:

xXx-Return of Xander Cage 3D (2017)-alE13.mkv
Format                      : Matroska
Format version              : Version 4 / Version 2
File size                   : 7.90 GiB
Duration                    : 1 h 46 min
Overall bit rate            : 10.6 Mb/s
Movie name                  : xXx-Return of Xander Cage 3D (2017)-alE13
Encoded date                : UTC 2017-05-26 04:40:54
Writing application         : mkvmerge v8.1.0 ('Psychedelic Postcard') 64bit
Writing library             : libebml v1.3.1 + libmatroska v1.4.2
Cover                       : Yes
Attachments                 : cover.jpg

Video
ID                          : 1
Format                      : AVC
Format/Info                 : Advanced Video Codec
Format profile              : High@L4.1
Format settings, CABAC      : Yes
Format settings, ReFrames   : 2 frames
Codec ID                    : V_MPEG4/ISO/AVC
Duration                    : 1 h 46 min
Bit rate                    : 9 496 kb/s
Width                       : 1 920 pixels
Height                      : 1 080 pixels
Display aspect ratio        : 16:9
Frame rate mode             : Constant
Frame rate                  : 23.976 (24000/1001) FPS
Color space                 : YUV
Chroma subsampling          : 4:2:0
Bit depth                   : 8 bits
Scan type                   : Progressive
Bits/(Pixel*Frame)          : 0.191
Stream size                 : 7.08 GiB (90%)
Title                       : xXx-Return of Xander Cage 3D (2017)-alE13
Writing library             : x264 core 142
Default                     : Yes
Forced                      : No
Color range                 : Limited
Color primaries             : BT.709
Transfer characteristics    : BT.709
Matrix coefficients         : BT.709

Audio #1
ID                          : 2
Format                      : AC-3
Format/Info                 : Audio Coding 3
Mode extension              : CM (complete main)
Format settings, Endianness : Big
Codec ID                    : A_AC3
Duration                    : 1 h 46 min
Bit rate mode               : Constant
Bit rate                    : 640 kb/s
Channel(s)                  : 6 channels
Channel positions           : Front: L C R, Side: L R, LFE
Sampling rate               : 48.0 kHz
Frame rate                  : 31.250 FPS (1536 spf)
Compression mode            : Lossy
Stream size                 : 488 MiB (6%)
Title                       : xXx-Return of Xander Cage 3D (2017)-alE13_AC3
Language                    : English
Default                     : No
Forced                      : No

Audio #2
ID                          : 3
Format                      : AC-3
Format/Info                 : Audio Coding 3
Mode extension              : CM (complete main)
Format settings, Endianness : Big
Codec ID                    : A_AC3
Duration                    : 1 h 46 min
Bit rate mode               : Constant
Bit rate                    : 448 kb/s
Channel(s)                  : 6 channels
Channel positions           : Front: L C R, Side: L R, LFE
Sampling rate               : 48.0 kHz
Frame rate                  : 31.250 FPS (1536 spf)
Compression mode            : Lossy
Stream size                 : 342 MiB (4%)
Title                       : xXx-Return of Xander Cage 3D (2017)-alE13_AC3
Language                    : Polish
Default                     : Yes
Forced                      : No

Text
ID                          : 4
Format                      : VobSub
Muxing mode                 : zlib
Codec ID                    : S_VOBSUB
Codec ID/Info               : Picture based subtitle format used on DVDs
Duration                    : 1 h 38 min
Bit rate                    : 6 843 b/s
Count of elements           : 831
Stream size                 : 4.81 MiB (0%)
Title                       : xXx-Return of Xander Cage 3D (2017)-alE13
Language                    : Polish
Default                     : No
Forced                      : No

Menu
00:00:00.000                : en:(01)00:00:00:000
00:07:09.137                : en:(02)00:07:09:137
00:12:00.509                : en:(03)00:12:00:509
00:22:38.105                : en:(04)00:22:38:105
00:27:56.257                : en:(05)00:27:56:257
00:38:27.762                : en:(06)00:38:27:762
00:46:59.650                : en:(07)00:46:59:650
00:52:45.619                : en:(08)00:52:45:619
01:02:10.059                : en:(09)01:02:10:059
01:11:50.180                : en:(10)01:11:50:180
01:18:35.252                : en:(11)01:18:35:252
01:28:42.734                : en:(12)01:28:42:734
01:37:57.162                : en:(13)01:37:57:162
Podobne torrenty
[HDTV-HD] xXx: Reaktywacja-xXx-Return of Xander Cage (2017)[WEBRip 1080p by alE13 AC3][Lektor i Napisy PL/Eng][Eng]
[x 264] xXx: Reaktywacja / xXx: Return of Xander Cage (2017) [720p] [BluRay] [x264] [AC3-KiT] [Lektor PL] [Karibu]
[x 264] xXx: Reaktywacja - xXx Return of Xander Cage *2017* [720p] [BRrip] [XviD] [DD5.1-MAXX] [Lektor PL](Bill22)
[DivX - XviD] xXx: Reaktywacja - xXx Return of Xander Cage *2017* [WEB-DL] [XviD-KRT] [Napisy PL] [zibi6248]
[DivX - XviD] xXx: Reaktywacja - xXx Return of Xander Cage *2017* [HC] [720p] [HDRip] [XViD] [AC3-MORS] [NAPISY PL] [zibi6248]
[HDTV-HD] Szybcy i w¶ciekli 8-The Fate of the Furious (2017)-alE13[BRRip 1080p x264 by alE13 AC3/DTS]Napisy PL/Eng][Eng]
[ 3D] Mumia-The Mummy 3D (2017)[BRRip 1080p x264 by alE13 AC3/DTS][Lektor i Napisy PL/Eng][Eng]
[HDTV-HD] Resident Evil: Vendetta (2017)[BRRip 1080p x264 by alE13 AC3/DTS][Lektor i Napisy PL/Eng][Eng]
[HDTV-HD] Bałkańska Vendetta-Kill\'em All (2017)[BRRip 1080p x264 by alE13 AC3/DTS][Lektor i Napisy PL & Multi][Eng]
[ 3D] Wojna o planetę małp-War for the Planet of the Apes 3D (2017)[BRRip 1080p x264 by alE13 DTS/AC3][Lektor i Napisy PL/Eng/Multi][Eng]
Szczegóły torrenta
Trackerhttp://tracker.devil-torrents.pl/announce
Multitracker http://tracker.devil-torrents.pl/announce
http://tracker.torrentyorg.pl/announce
udp://tracker.opentrackr.org:1337/announce
udp://tracker.leechers-paradise.org:6969/announce
udp://tracker.ilibr.org:80/announce
udp://tracker.coppersurfer.tk:6969/announce
udp://p4p.arenabg.ch:1337/announce
udp://inferno.demonoid.pw:3391/announce

Kategoria:Filmy » 3D
Dodane26/05/2017 07:05:43
Ostatnie Uaktualnienie26/05/2017 07:15:43
Pokaż/Ukryj pliki:
16 plików
NIKT JESZCZE NIE DODAŁ KOMENTARZA

DODAJ KOMENTARZ
Więcej Emoticon



Wstecz

Żaden z opisanych na stronie plików nie jest przetrzymywany na serwerze. Administrator strony immortaltorrent.pl nie może ponieść konsekwencji prawnych za to co użytkownicy zamieszczają lub piszą na stronie.
Nie możesz używać tego serwisu do rozpowszechniania lub ściągania materiałów do których nie masz odpowiednich praw lub licencji. Użytkownicy zobowiązani są do przestrzeganie tych zasad.
Rejestracja konta jest jednoznaczna z akceptacją zasad.

2017 © immortaltorrent.pl


Najlepsze strony Torrentowe