Torrentów: 136515      Ranga: Gość               Stwórz konto Odzyskiwanie hasła


Kategorie
Filmy
 ⇒ DivX - XviD
 ⇒ RMVB
 ⇒ DVD-R
 ⇒ TV + Seriale
 ⇒ HDTV-HD
 ⇒ VCD - SVCD
 ⇒ x 264
 ⇒  3D
Gry
 ⇒ Gry PC
 ⇒ Gry Konsole
 ⇒ xbox360
Muzyka
 ⇒ Muzyka
 ⇒ Teledyski/Koncerty
Książki - Komiksy
 ⇒ E-Booki + Audio
 ⇒ Komiksy
Inne
 ⇒ XXX
 ⇒ Dla Dzieci
 ⇒ Sport
 ⇒ Pozostałe - Różne
 ⇒ Manga - Anime
 ⇒ GSM - PDA
Aplikacje
 ⇒ Windows
 ⇒ Linux + Macintosh



Detale torrenta

Na własną rękę-Collateral Damage (2001)[BRRip 1080p x264 by alE13 AC3/TrueHD][Lektor PL/Napisy Eng][Eng]
Kondycja:
Dodane: 13/09/2017
Rozmiar: 9.67 GB
Uploader: alE13

seed(ów): 1
leecher(ów): 0
Pobrane: 0





Ocena: N/A

[img]https://i.imgur.com/8C4RzdM.jpg[/img]

http://www.imdb.com/title/tt0233469/
http://www.filmweb.pl/film/Na+w%C5%82asn%C4%85+r%C4%99k%C4%99-2002-4635

Audio TrueHD w osobnym pliku.
Plik zawiera Sample.


reżyseria: Andrew Davis
scenariusz: David Griffiths,Peter Griffiths
gatunek: Thriller,Akcja
produkcja: USA
premiera: 04-02-2002
muzyka:         Graeme Revell
zdjęcia:        Adam Greenberg
czas:           01:48:48

opis:

After his family is killed by a terrorist act, a firefighter goes in search of the one responsible.

Bohaterem "Na własną rękę" jest Gordy Brewer, amerykański strażak, którego żona i synek zostają zabici
w wyniku zamachu terrorystycznego. O jego dokonanie oskarżony zostaje El Lobo, kolumbijski terrorysta,
lider miejscowych guerillas. Sprawą zajmuje się FBI i CIA, ale szybko okazuje się, że ze względów politycznych
obie agencje nie mogą zrobić nic, aby schwytać i postawić El Lobo przed sądem. Zdesperowany Gordy postanawia
sam wymierzyć sprawiedliwość terroryście, a żeby to uczynić wyrusza w niebezpieczną podróż do serca Kolumbii,
na tereny zajmowane przez guerillas.

https://i.imgur.com/FuVzyVi.jpg
https://i.imgur.com/qaPWIHn.jpg
https://i.imgur.com/CzTLUCs.jpg
https://i.imgur.com/LnIT2o4.jpg

obsada:

Arnold Schwarzenegger, John Leguizamo, Francesca Neri

dane techniczne:

audio:

Collateral Damage (2001)-alE13_TrueHD.mka

Hash: BCC0CB63362290E3
Format: Matroska
Czas: 01:48:48.397
Rozmiar: 1.36 GiB (1458317772)

Audio (0):
Kodek:         (TrueHD) TrueHD
Format:       TrueHD
Kanały:       6 channels
BitRate:       1 719 kb/s
Tytuł:         Collateral Damage (2001)-alE13_TrueHD
Język:       English


Napisy (0):
Kodek:         (S_TEXT/UTF8) UTF-8
Format:       UTF-8
Język:       English (Collateral Damage (2001)-alE13)

video:

Collateral Damage (2001)-alE13.mkv
Format                      : Matroska
Format version              : Version 4 / Version 2
File size                   : 8.27 GiB
Duration                    : 1 h 48 min
Overall bit rate            : 10.9 Mb/s
Movie name                  : Collateral Damage (2001)-alE13
Encoded date                : UTC 2017-09-13 06:03:05
Writing application         : mkvmerge v8.1.0 ('Psychedelic Postcard') 64bit
Writing library             : libebml v1.3.1 + libmatroska v1.4.2
Cover                       : Yes
Attachments                 : Cover.jpg

Video
ID                          : 1
Format                      : AVC
Format/Info                 : Advanced Video Codec
Format profile              : High@L4.1
Format settings, CABAC      : Yes
Format settings, RefFrames  : 2 frames
Codec ID                    : V_MPEG4/ISO/AVC
Duration                    : 1 h 48 min
Bit rate                    : 9 795 kb/s
Width                       : 1 920 pixels
Height                      : 1 080 pixels
Display aspect ratio        : 16:9
Frame rate mode             : Constant
Frame rate                  : 23.976 (24000/1001) FPS
Color space                 : YUV
Chroma subsampling          : 4:2:0
Bit depth                   : 8 bits
Scan type                   : Progressive
Bits/(Pixel*Frame)          : 0.197
Stream size                 : 7.44 GiB (90%)
Title                       : Collateral Damage (2001)-alE13
Writing library             : x264 core 142
Default                     : Yes
Forced                      : No
Color range                 : Limited
Color primaries             : BT.709
Transfer characteristics    : BT.709
Matrix coefficients         : BT.709

Audio #1
ID                          : 2
Format                      : AC-3
Format/Info                 : Audio Coding 3
Format settings, Endianness : Big
Codec ID                    : A_AC3
Duration                    : 1 h 48 min
Bit rate mode               : Constant
Bit rate                    : 640 kb/s
Channel(s)                  : 6 channels
Channel positions           : Front: L C R, Side: L R, LFE
Sampling rate               : 48.0 kHz
Frame rate                  : 31.250 FPS (1536 SPF)
Bit depth                   : 16 bits
Compression mode            : Lossy
Stream size                 : 498 MiB (6%)
Title                       : Collateral Damage (2001)-alE13_AC3
Language                    : English
Service kind                : Complete Main
Default                     : No
Forced                      : No

Audio #2
ID                          : 3
Format                      : AC-3
Format/Info                 : Audio Coding 3
Format settings, Endianness : Big
Codec ID                    : A_AC3
Duration                    : 1 h 48 min
Bit rate mode               : Constant
Bit rate                    : 448 kb/s
Channel(s)                  : 6 channels
Channel positions           : Front: L C R, Side: L R, LFE
Sampling rate               : 48.0 kHz
Frame rate                  : 31.250 FPS (1536 SPF)
Bit depth                   : 16 bits
Compression mode            : Lossy
Stream size                 : 349 MiB (4%)
Title                       : Collateral Damage (2001)-alE13_AC3
Language                    : Polish
Service kind                : Complete Main
Default                     : Yes
Forced                      : No

Menu
00:00:00.000                : en:Gordy at Work (Credits)
00:03:22.159                : en:Gordy at home
00:04:52.291                : en:Plaza Explosion
00:08:11.949                : en:"I Saw Him"
00:12:53.355                : en:El Lobo
00:17:01.645                : en:Collateral Damage
00:20:37.027                : en:Terminated
00:24:50.446                : en:Into Colombia
00:27:48.917                : en:Bus stop
00:31:27.385                : en:In Search of a pass
00:34:51.255                : en:Arrested
00:37:33.458                : en:Armstrong
00:40:51.073                : en:Guerrilla Siege
00:45:08.914                : en:Upriver - at Gunpoint
00:48:48.300                : en:Taste of Felix
00:52:54.629                : en:No Room for Mistakes
00:56:56.663                : en:Gordy's Ride
00:59:57.552                : en:El Robo's Compound
01:02:58.733                : en:Surprise on the Street
01:04:40.876                : en:Remembered faces
01:08:43.035                : en:No better than he is
01:13:19.311                : en:Attack on the Ship
01:17:04.036                : en:Brandt's Excuse to Kill
01:19:38.439                : en:Arrivals in Washington
01:23:31.673                : en:The Target
01:27:21.027                : en:Restroom Revelations
01:31:47.460                : en:Through the roof
01:34:00.593                : en:Getting the Shaft
01:36:25.946                : en:Tunnel of flame
01:40:43.620                : en:Final battle
01:43:06.555                : en:Survivors
01:44:34.059                : en:End Credits

Podobne torrenty
[DivX - XviD] Na własną rękę - Collateral Damage (2002) [BRRip] [480p] [XviD] [AC3-LTN] [Lektor PL]
[DivX - XviD] Na własną rękę - Collateral Damage *2002* [DVDRip.XviD] [Lektor PL]
[HDTV-HD] John Wick 2 (2017)[BRRip 1080p x264 by alE13 AC3/TrueHD][Napisy PL/Eng][Eng]
[HDTV-HD] Terrorysta-Ticker (2001)[BDRip 1080p x264 by alE13 AC3/DTS][Lektor PL/Napisy Eng][Eng]
[HDTV-HD] Szybcy i wściekli 8-The Fate of the Furious (2017)-alE13[BRRip 1080p x264 by alE13 AC3/DTS]Napisy PL/Eng][Eng]
[HDTV-HD] Coś-The Thing (1982)[BRRip 1080p x264 by alE13 AC3][Lektor i Napisy PL/Eng][Eng]
[HDTV-HD] Gladiator(2000)[BRRip 1080p x264 by alE13 AC3][Lektor i Napisy PL/Eng][Eng]
[HDTV-HD] Centurion (2010)[BRRip 1080p x264 by alE13 DTS/AC3][Lektor i Napisy PL/Eng][Eng]
[HDTV-HD] Bez wyjścia-No Way Out (1987)[BRRip 1080p x264 by alE13 AC3][Lektor i Napisy PL/Eng][Eng]
[HDTV-HD] Equilibrium (2002)[BRRip 1080p x264 by alE13 AC3][Lektor i Napisy PL/Eng][Eng]
Szczegóły torrenta
Trackerhttp://tracker.devil-torrents.pl/announce
Multitracker http://tracker.devil-torrents.pl/announce
http://tracker.torrentyorg.pl/announce
udp://tracker.opentrackr.org:1337/announce
udp://tracker.leechers-paradise.org:6969/announce
udp://tracker.ilibr.org:80/announce
udp://tracker.coppersurfer.tk:6969/announce
udp://p4p.arenabg.ch:1337/announce
udp://inferno.demonoid.pw:3391/announce

Kategoria:Filmy » HDTV-HD
Dodane13/09/2017 08:09:55
Ostatnie Uaktualnienie13/09/2017 08:34:55
Pokaż/Ukryj pliki:
15 plików
NIKT JESZCZE NIE DODAŁ KOMENTARZA

DODAJ KOMENTARZ
Więcej Emoticon



Wstecz

Żaden z opisanych na stronie plików nie jest przetrzymywany na serwerze. Administrator strony immortaltorrent.pl nie może ponieść konsekwencji prawnych za to co użytkownicy zamieszczają lub piszą na stronie.
Nie możesz używać tego serwisu do rozpowszechniania lub ściągania materiałów do których nie masz odpowiednich praw lub licencji. Użytkownicy zobowiązani są do przestrzeganie tych zasad.
Rejestracja konta jest jednoznaczna z akceptacją zasad.

2017 © immortaltorrent.pl


Najlepsze strony Torrentowe