Torrentów: 134359      Ranga: Gość               Stwórz konto Odzyskiwanie hasła


Kategorie
Filmy
 ⇒ DivX - XviD
 ⇒ RMVB
 ⇒ DVD-R
 ⇒ TV + Seriale
 ⇒ HDTV-HD
 ⇒ VCD - SVCD
 ⇒ x 264
 ⇒  3D
Gry
 ⇒ Gry PC
 ⇒ Gry Konsole
 ⇒ xbox360
Muzyka
 ⇒ Muzyka
 ⇒ Teledyski/Koncerty
Książki - Komiksy
 ⇒ E-Booki + Audio
 ⇒ Komiksy
Inne
 ⇒ XXX
 ⇒ Dla Dzieci
 ⇒ Sport
 ⇒ Pozostałe - Różne
 ⇒ Manga - Anime
 ⇒ GSM - PDA
Aplikacje
 ⇒ Windows
 ⇒ Linux + Macintosh



Detale torrenta

Wynajęty Człowiek-The Hired Hand (1971)[BDRip 1080p by alE13 PCM/AC3[Lektor PL/Sub Eng][Eng]
Kondycja:
Dodane: 07/01/2017
Rozmiar: 8.63 GB
Uploader: alE13

seed(ów): 0
leecher(ów): 0
Pobrane: 0





Ocena: N/A



http://www.imdb.com/title/tt0067204/
http://www.filmweb.pl/film/Wynaj%C4%99ty+cz%C5%82owiek-1971-130436

Plik zawiera Sample.

reżyseria: Peter Fonda
scenariusz: Alan Sharp
gatunek: Western
produkcja: USA
premiera: 11-08-1971
muzyka:         Bruce Langhorne
zdjęcia:        Vilmos Zsigmond
czas:           1h 31mn

opis:

Harry returns home to his wife and farm after drifting with his friend Arch and has to
make a difficult decision regarding his loyalties.

Harry Collings (Peter Fonda) i Arch Harris (Warren Oates) to dwóch wędrowców, znużonych
siedmioletnią tułaczką po bezdrożach. Wraz z młodym Danem Griffenem (Robert Pratt) zatrzymują
się w Del Norte, mieścinie pośrodku pustkowia, którą rządzi skorumpowany McVey (Severn Darden).
Harris i Griffen myślą o podróży do Kalifornii, jednak Collings chce wrócić do żony. Gdy ginie
Griffen z rąk miejscowych zbirów, Collings w akcie zemsty ciężką rani McVeya, po czym wraz z
Harrisem wyrusza w drogę do domu. Gdy dociera na miejsce, musi odzyskać zaufanie dawno niewidzianej
żony Hannah (Verna Bloom) i chce dokonać tego, pracując na farmie jak zwykły, wynajęty człowiek.
Stopniowo nieufność między małżonkami znika, jednak ich spokój mąci pojawienie się żądnego zemsty McVeya.

http://i.imgur.com/NcVzBzG.jpg
http://i.imgur.com/mXyKva6.jpg
http://i.imgur.com/NFPyT5W.jpg
http://i.imgur.com/QXYi7Jj.jpg

obsada:

Peter Fonda, Warren Oates, Verna Bloom

dane techniczne:

The Hired Hand (1971)-alE13.mkv
Format                      : Matroska
Format version              : Version 4 / Version 2
File size                   : 8.57 GiB
Duration                    : 1 h 31 min
Overall bit rate            : 13.5 Mb/s
Movie name                  : The Hired Hand (1971)-alE13
Encoded date                : UTC 2017-01-06 15:19:01
Writing application         : mkvmerge v8.1.0 ('Psychedelic Postcard') 64bit
Writing library             : libebml v1.3.1 + libmatroska v1.4.2
Cover                       : Yes
Attachments                 : cover.jpg

Video
ID                          : 1
Format                      : AVC
Format/Info                 : Advanced Video Codec
Format profile              : High@L4.1
Format settings, CABAC      : Yes
Format settings, ReFrames   : 2 frames
Codec ID                    : V_MPEG4/ISO/AVC
Duration                    : 1 h 30 min
Bit rate                    : 10.6 Mb/s
Width                       : 1 920 pixels
Height                      : 1 040 pixels
Display aspect ratio        : 1.85:1
Frame rate mode             : Constant
Frame rate                  : 23.976 (24000/1001) FPS
Color space                 : YUV
Chroma subsampling          : 4:2:0
Bit depth                   : 8 bits
Scan type                   : Progressive
Bits/(Pixel*Frame)          : 0.221
Stream size                 : 6.72 GiB (78%)
Title                       : The Hired Hand (1971)-alE13
Writing library             : x264 core 142
Default                     : Yes
Forced                      : No
Color range                 : Limited
Color primaries             : BT.709
Transfer characteristics    : BT.709
Matrix coefficients         : BT.709

Audio #1
ID                          : 2
Format                      : AC-3
Format/Info                 : Audio Coding 3
Mode extension              : CM (complete main)
Format settings, Endianness : Big
Codec ID                    : A_AC3
Duration                    : 1 h 30 min
Bit rate mode               : Constant
Bit rate                    : 384 kb/s
Channel(s)                  : 2 channels
Channel positions           : Front: L R
Sampling rate               : 48.0 kHz
Frame rate                  : 31.250 FPS (1536 spf)
Bit depth                   : 16 bits
Compression mode            : Lossy
Stream size                 : 248 MiB (3%)
Title                       : The Hired Hand (1971)-alE13_AC3
Language                    : English
Default                     : No
Forced                      : No

Audio #2
ID                          : 3
Format                      : PCM
Format settings, Endianness : Big
Codec ID                    : A_PCM/INT/BIG
Duration                    : 1 h 30 min
Bit rate mode               : Constant
Bit rate                    : 2 304 kb/s
Sampling rate               : 48.0 kHz
Frame rate                  : 199.998 FPS (240 spf)
Bit depth                   : 24 bits
Stream size                 : 1.45 GiB (17%)
Title                       : The Hired Hand (1971)-alE13_PCM
Language                    : English
Default                     : No
Forced                      : No

Audio #3
ID                          : 4
Format                      : AC-3
Format/Info                 : Audio Coding 3
Mode extension              : CM (complete main)
Format settings, Endianness : Big
Codec ID                    : A_AC3
Duration                    : 1 h 31 min
Bit rate mode               : Constant
Bit rate                    : 256 kb/s
Channel(s)                  : 2 channels
Channel positions           : Front: L R
Sampling rate               : 48.0 kHz
Frame rate                  : 31.250 FPS (1536 spf)
Bit depth                   : 16 bits
Compression mode            : Lossy
Delay relative to video     : 1 s 850 ms
Stream size                 : 166 MiB (2%)
Title                       : The Hired Hand (1971)-alE13_AC3_from VHS
Language                    : Polish
Default                     : Yes
Forced                      : No

Text
ID                          : 5
Format                      : UTF-8
Codec ID                    : S_TEXT/UTF8
Codec ID/Info               : UTF-8 Plain Text
Duration                    : 1 h 21 min
Bit rate                    : 30 b/s
Count of elements           : 533
Stream size                 : 18.4 KiB (0%)
Title                       : The Hired Hand (1971)-alE13
Language                    : English
Default                     : Yes
Forced                      : No

Menu
00:00:00.000                : en:(01)00:00:00:000
00:11:22.056                : en:(02)00:11:22:056
00:22:53.080                : en:(03)00:22:53:080
00:31:51.464                : en:(04)00:31:51:409
00:41:55.901                : en:(05)00:41:55:846
00:53:51.789                : en:(06)00:53:51:728
01:06:11.111                : en:(07)01:06:11:050
01:16:57.674                : en:(08)01:16:57:613
01:25:48.120                : en:(09)01:25:48:059
Podobne torrenty
[HDTV-HD] Złe bliźniaczki-Twins Of Evil (1971) [BDRip 1080p by alE13 AC3/DTS][Napisy PL/Eng][Eng]
[HDTV-HD] Człowiek z Dzikiego Zachodu-Man of the West (1958)[BRRip 1080p x264 by alE13 AC3/DTS][Lektor i Napisy PL][Eng]
[HDTV-HD] Być albo nie być-To Be or Not to Be (1983)[BDRip 1080p by alE13 AC3/DTS][Lektor i Napisy PL/Eng][Eng]
[HDTV-HD] 10 minut do północy-10 to Midnight (1983)[BDRip 1080p by alE13 DTS/AC3[Lektor PL][Eng]
[HDTV-HD] Wskrzeszony-The Resurrected (1991)[BDRip 1080p by alE13 DTS/AC3][Lektor PL i Napisy Eng][Eng]
[HDTV-HD] Spawn [Director\'s cut] (1997)[BDRip 1080p by alE13 AC3/DTS][Lektor i Napisy PL/Eng][Eng]
[HDTV-HD] State of Grace (1990)[BDRip 1080p x264 by alE13 AC3/DTS][Lektor i Napisy PL/Eng][Eng]
[HDTV-HD] W Potrzasku-The Hunted (1995)[BDRip 1080p x264 by alE13 AC3/DTS][Lektor i Napisy PL/Eng][Eng]
[HDTV-HD] Wiedźmy-The Witches (1990)[BDRip 1080p by alE13 AC3/FLAC[Lektor i Napisy PL/Eng][Eng]
[HDTV-HD] Wściekłe Psy-Reservoir Dogs (1992)[BDRip 1080p by alE13 AC3/DTS][Lektor i Napisy PL/Eng][Eng]
Szczegóły torrenta
Trackerhttp://auratorrent.pl:8089/announce
Multitracker http://auratorrent.pl:8089/announce
http://pow7.com:80/announce
http://pow7.com/announce
http://tracker.tfile.me/announce
http://retracker.omsk.ru:2710/announce
http://mgtracker.org:2710/announce
udp://tracker.leechers-paradise.org:6969/announce
http://mgtracker.org:2710/announce
http://pow7.com:80/announce
http://pow7.com/announce
http://tracker.torrentyorg.pl/announce
udp://inferno.demonoid.ooo:3392/announce
udp://inferno.demonoid.pw:3393/announce
udp://tracker.coppersurfer.tk:6969/announce

Kategoria:Filmy » HDTV-HD
Dodane07/01/2017 09:01:00
Ostatnie Uaktualnienie28/02/2017 07:44:05
Pokaż/Ukryj pliki:
11 plików
NIKT JESZCZE NIE DODAŁ KOMENTARZA

DODAJ KOMENTARZ
Więcej Emoticon



Wstecz

Żaden z opisanych na stronie plików nie jest przetrzymywany na serwerze. Administrator strony immortaltorrent.pl nie może ponieść konsekwencji prawnych za to co użytkownicy zamieszczają lub piszą na stronie.
Nie możesz używać tego serwisu do rozpowszechniania lub ściągania materiałów do których nie masz odpowiednich praw lub licencji. Użytkownicy zobowiązani są do przestrzeganie tych zasad.
Rejestracja konta jest jednoznaczna z akceptacją zasad.

2017 © immortaltorrent.pl


Najlepsze strony Torrentowe