Torrentów: 134777      Ranga: Gość               Stwórz konto Odzyskiwanie hasła


Kategorie
Filmy
 ⇒ DivX - XviD
 ⇒ RMVB
 ⇒ DVD-R
 ⇒ TV + Seriale
 ⇒ HDTV-HD
 ⇒ VCD - SVCD
 ⇒ x 264
 ⇒  3D
Gry
 ⇒ Gry PC
 ⇒ Gry Konsole
 ⇒ xbox360
Muzyka
 ⇒ Muzyka
 ⇒ Teledyski/Koncerty
Książki - Komiksy
 ⇒ E-Booki + Audio
 ⇒ Komiksy
Inne
 ⇒ XXX
 ⇒ Dla Dzieci
 ⇒ Sport
 ⇒ Pozostałe - Różne
 ⇒ Manga - Anime
 ⇒ GSM - PDA
Aplikacje
 ⇒ Windows
 ⇒ Linux + Macintosh



Detale torrenta

Disco Polo (2015) [DVDRip] [XviD-torentup] [PL]
Kondycja:
Dodane: 23/10/2015
Rozmiar: 697.34 MB
Uploader: torentup

seed(ów): 7
leecher(ów): 12
Pobrane: 7





Ocena: N/A

=====================
INFO
=====================


Gatunek: ............ - Komedia, Muzyczny
Produkcja: .......... - Polska
Premiera: ........... - 27 lutego 2015 (Polska) 27 lutego 2015 (świat)
Czas trwania: ....... - 1 godz. 47 min.
Reżyseria: .......... - Maciej Bochniak
Scenariusz: ......... - Maciej Bochniak, Mateusz Kościukiewicz

=====================
OPIS
====================

Młodzi muzycy z prowincji w błyskawiczny sposób zdobywają szczyty list przebojów.

=====================
OBSADA
====================

★ Dawid Ogrodnik........... - Tomek
★ Piotr Głowacki........... - "Rudy"
★ Joanna Kulig............. - Anka "Gensonina"
★ Tomasz Kot............... - Daniel Polak
★ Aleksandra Hamkało....... - "Mikser"
★ Mariusz Drężek........... - Roland
★ Rafał Maćkowiak.......... - Maciek z "Atomica"
★ Juliusz Chrząstowski..... - Ojciec Tomka

Link:

Ocena na film webie :
http://filmweb.pl/film/Disco+Polo-2015-716498

Zwiastun :
http://filmweb.pl/video/zwiastun/nr+1-35166

=====================
DANE TECHNICZNE
=====================

Format                         : AVI
Format/Info                    : Audio Video Interleave
File size                      : 697 MiB
Duration                       : 1h 43mn
Overall bit rate               : 945 Kbps

Video
ID                             : 0
Format                         : MPEG-4 Visual
Format profile                 : Advanced Simple@L5
Format settings, BVOP          : Yes
Format settings, QPel          : No
Format settings, GMC           : No warppoints
Format settings, Matrix        : Default (H.263)
Codec ID                       : XVID
Codec ID/Hint                  : XviD
Duration                       : 1h 43mn
Bit rate                       : 811 Kbps
Width                          : 640 pixels
Height                         : 272 pixels
Display aspect ratio           : 2.35:1
Frame rate                     : 25.000 fps
Color space                    : YUV
Chroma subsampling             : 4:2:0
Bit depth                      : 8 bits
Scan type                      : Progressive
Compression mode               : Lossy
Bits/(Pixel*Frame)             : 0.186
Stream size                    : 598 MiB (86%)
Writing library                : XviD 1.2.1 (UTC 2008-12-04)

Audio
ID                             : 1
Format                         : MPEG Audio
Format version                 : Version 1
Format profile                 : Layer 3
Mode                           : Joint stereo
Mode extension                 : MS Stereo
Codec ID                       : 55
Codec ID/Hint                  : MP3
Duration                       : 1h 43mn
Bit rate mode                  : Constant
Bit rate                       : 128 Kbps
Channel(s)                     : 2 channels
Sampling rate                  : 48.0 KHz
Compression mode               : Lossy
Stream size                    : 94.5 MiB (14%)
Alignment                      : Aligned on interleaves
Interleave, duration           : 160 ms (4.00 video frames)
Interleave, preload duration   : 216 ms
Title                          : Disco_Polo - [0] Polish Delay 0ms_new
Writing library                : LAME3.99r
Encoding settings              : -m j -V 4 -q 2 -lowpass 17 -b 128

Podobne torrenty
[DivX - XviD] Disco Polo 2015 [DVDRip] [XviD-KiT] [PL]
[DivX - XviD] Disco Polo (2015) [DVDRip] [XviD] [PL] - tomeks
[DivX - XviD] Disco Polo *2015* [DVDRip] [XviD-NN] [Film Polski]
[DivX - XviD] Disco Polo *2015* [480p] [DVDRip] [XviD] [AC3-Shadow] [Film PL]
[Muzyka] VA - Disco Polo 4Ever [2008][Disco Polo][mp3@VBR]
[DivX - XviD] Apartament-(2015)[DVDRip][Xvid-torentup][DD5.1][Lektor PL]
[DivX - XviD] Moje corki krowy(2015)[DVDRip] [XviD-torentup] [Film Polski]
[DivX - XviD] Żona do podziału - Pension complete (2015) [DVDRip] [XviD-torentup] [Lektor PL]
[DivX - XviD] Excentrycy, czyli po słonecznej stronie ulicy (2015) [DVDRip] [Xvid-torentup] [Film Polski ]
[Muzyka] Disco Polo [mp3@128]
Szczegóły torrenta
Trackerhttp://tracker.filetracker.pl:8089/announce
Multitracker http://tracker.filetracker.pl:8089/announce
http://tracker.free-torrents.pl/announce
http://tracker.streettorrent.pl:80/announce
http://tracker.torrenty.org:6969/announce
http://tracker.aletorrenty.pl:2710/announce
http://tracker.pubt.net:2710/announce
http://94.228.192.98/announce
http://www.tlv.cc:7777/announce
http://tracker.torrenty.org:6969/announce
http://retracker.omsk.ru:2710/announce
http://tracker.immortaltorrent.pl/announce
udp://open.demonii.com:1337/announce
http://tracker.best-torrents.net:6969/announce
udp://torrent.gresille.org:80/announce
udp://9.rarbg.me:2710/announce
udp://eddie4.nl:6969/announce
udp://tracker.leechers-paradise.org:6969/announce
udp://tracker4.piratux.com:6969/announce
udp://www.eddie4.nl:6969/announce
udp://open.demonii.com:1337/announce
udp://tracker.openbittorrent.com:80/announce
udp://tracker.publicbt.com:80/announce
udp://ipv4.tracker.harry.lu:80/announce
udp://tracker.publicbt.com/announce
udp://shadowshq.eddie4.nl:6969/announce
udp://9.rarbg.com:2710/announce
udp://11.rarbg.com:80/announce
udp://10.rarbg.com/announce
udp://tracker.istole.it:80/announce
udp://exodus.desync.com:6969
udp://open.demonii.com:1337/announce
udp://tracker.prq.to/announce

Kategoria:Filmy » DivX - XviD
Dodane23/10/2015 00:10:50
Ostatnie Uaktualnienie23/10/2015 13:26:47
Pokaż/Ukryj pliki:
5 plików
NIKT JESZCZE NIE DODAŁ KOMENTARZA

DODAJ KOMENTARZ
Więcej Emoticon



Wstecz

Żaden z opisanych na stronie plików nie jest przetrzymywany na serwerze. Administrator strony immortaltorrent.pl nie może ponieść konsekwencji prawnych za to co użytkownicy zamieszczają lub piszą na stronie.
Nie możesz używać tego serwisu do rozpowszechniania lub ściągania materiałów do których nie masz odpowiednich praw lub licencji. Użytkownicy zobowiązani są do przestrzeganie tych zasad.
Rejestracja konta jest jednoznaczna z akceptacją zasad.

2017 © immortaltorrent.pl


Najlepsze strony Torrentowe