Torrentów: 134067      Ranga: Gość               Stwórz konto Odzyskiwanie hasła


Kategorie
Filmy
 ⇒ DivX - XviD
 ⇒ RMVB
 ⇒ DVD-R
 ⇒ TV + Seriale
 ⇒ HDTV-HD
 ⇒ VCD - SVCD
 ⇒ x 264
 ⇒  3D
Gry
 ⇒ Gry PC
 ⇒ Gry Konsole
 ⇒ xbox360
Muzyka
 ⇒ Muzyka
 ⇒ Teledyski/Koncerty
Książki - Komiksy
 ⇒ E-Booki + Audio
 ⇒ Komiksy
Inne
 ⇒ XXX
 ⇒ Dla Dzieci
 ⇒ Sport
 ⇒ Pozostałe - Różne
 ⇒ Manga - Anime
 ⇒ GSM - PDA
Aplikacje
 ⇒ Windows
 ⇒ Linux + Macintosh



Detale torrenta

Doktor House - S01E01 (2004) [DVDRip XviD-torentup] [Lektor PL]
Kondycja:
Dodane: 12/10/2015
Rozmiar: 347.89 MB
Uploader: torentup

seed(ów): 2
leecher(ów): 2
Pobrane: 0





Ocena: N/A

Doktor House - S01E01 (2004) [DVDRip XviD-torentup] [Lektor PL]





Produkcja: USA
Gatunek: Dramat, Komedia
Data premiery: 2004-11-16
Twórca: David Shore
Reżyseria: Keith Gordon, Deran Sarafian
Scenariusz: Peter Blake, Sara B. Cooper
Zdjęcia: James Dillinger
Muzyka: Jason Derlatka
Czas trwania: 45




Fabuła serialu toczy się wokół doktora Gregorego House. W każdym odcinku doktor House wraz ze swoim zespołem (Eric Foreman, Chris Taub, Lawrence Kutner, Remy Hadley) próbuje zdiagnozować i wyleczyć pacjentów przejawiających rozmaite objawy, niewyjaśnione wcześniej przez innych lekarzy. Oprócz tego serial ukazuje także prywatne życie House i członków jego zespołu.



Hugh Laurie (doktor Gregory House)
Lisa Edelstein (dr Lisa Cuddy )
Jesse Spencer (dr Robert Chase)
Omar Epps (dr Eric Foreman )
Olivia Wilde (dr Remy "Trzynastka" Hadley )



Dane przykładowego odcinka s01e01

Format             : AVI
Format/Info          : Audio Video Interleave
File size           : 348 MiB
Duration            : 44mn 0s
Overall bit rate        : 1 105 Kbps
Writing application      : VirtualDubMod 1.5.10.2 (build 2540/release)
Writing library        : VirtualDubMod build 2540/release

Video
ID               : 0
Format             : MPEG-4 Visual
Format profile         : Advanced Simple@L5
Format settings, BVOP     : Yes
Format settings, QPel     : No
Format settings, GMC      : No warppoints
Format settings, Matrix    : Default (H.263)
Codec ID            : XVID
Codec ID/Hint         : XviD
Duration            : 44mn 0s
Bit rate            : 968 Kbps
Width             : 624 pixels
Height             : 352 pixels
Display aspect ratio      : 16:9
Frame rate           : 23.976 fps
Color space          : YUV
Chroma subsampling       : 4:2:0
Bit depth           : 8 bits
Scan type           : Progressive
Compression mode        : Lossy
Bits/(Pixel*Frame)       : 0.184
Stream size          : 305 MiB (88%)
Writing library        : XviD 1.0.3 (UTC 2004-12-20)

Audio
ID               : 1
Format             : MPEG Audio
Format version         : Version 1
Format profile         : Layer 3
Mode              : Joint stereo
Mode extension         : MS Stereo
Codec ID            : 55
Codec ID/Hint         : MP3
Duration            : 44mn 0s
Bit rate mode         : Constant
Bit rate            : 128 Kbps
Channel(s)           : 2 channels
Sampling rate         : 48.0 KHz
Compression mode        : Lossy
Stream size          : 40.3 MiB (12%)
Alignment           : Aligned on interleaves
Interleave, duration      : 42 ms (1.00 video frame)
Interleave, preload duration  : 504 ms
Podobne torrenty
[TV + Seriale] Doktor House - S01E02 (2004) [DVDRip XviD-torentup] [Lektor PL]
[TV + Seriale] Doktor House - S01E03 (2004) [DVDRip XviD-torentup] [Lektor PL]
[TV + Seriale] Doktor House - S01E04 (2004) [DVDRip XviD-torentup] [Lektor PL]
[TV + Seriale] Doktor House - S01E05 (2004) [DVDRip XviD-torentup] [Lektor PL]
[TV + Seriale] Doktor House - S01E06 (2004) [DVDRip XviD-torentup] [Lektor PL]
[TV + Seriale] Doktor House - S01E07 (2004) [DVDRip XviD-torentup] [Lektor PL]
[TV + Seriale] Mr Robot [S01E01] [480p] [WEB-DL] [AC3] [XviD-torentup] [Lektor PL]
[DivX - XviD] Grunt to rodzinka (2004) [DVDRip] [XviD-torentup] [Lektor PL ]
[TV + Seriale] Dr House S01E01 [DVDRip.Xvid][Lektor PL]
[TV + Seriale] Bananowy Doktor - Royal Pains S01E01 [HDTV] [ENG]
Szczegóły torrenta
Trackerhttp://tracker.filetracker.pl:8089/announce
Multitracker http://tracker.filetracker.pl:8089/announce
http://tracker.free-torrents.pl/announce
http://tracker.streettorrent.pl:80/announce
http://tracker.torrenty.org:6969/announce
http://tracker.aletorrenty.pl:2710/announce
http://tracker.pubt.net:2710/announce
http://94.228.192.98/announce
http://www.tlv.cc:7777/announce
http://tracker.torrenty.org:6969/announce
http://retracker.omsk.ru:2710/announce
http://tracker.immortaltorrent.pl/announce
udp://open.demonii.com:1337/announce
http://tracker.best-torrents.net:6969/announce
udp://torrent.gresille.org:80/announce
udp://9.rarbg.me:2710/announce
udp://eddie4.nl:6969/announce
udp://tracker.leechers-paradise.org:6969/announce
udp://tracker4.piratux.com:6969/announce
udp://www.eddie4.nl:6969/announce
udp://open.demonii.com:1337/announce
udp://tracker.openbittorrent.com:80/announce
udp://tracker.publicbt.com:80/announce
udp://ipv4.tracker.harry.lu:80/announce
udp://tracker.publicbt.com/announce
udp://shadowshq.eddie4.nl:6969/announce
udp://9.rarbg.com:2710/announce
udp://11.rarbg.com:80/announce
udp://10.rarbg.com/announce
udp://tracker.istole.it:80/announce
udp://exodus.desync.com:6969
udp://open.demonii.com:1337/announce
udp://tracker.prq.to/announce

Kategoria:Filmy » TV + Seriale
Dodane12/10/2015 20:10:36
Ostatnie Uaktualnienie12/10/2015 21:45:54
Pokaż/Ukryj pliki:
4 plików
NIKT JESZCZE NIE DODAŁ KOMENTARZA

DODAJ KOMENTARZ
Więcej Emoticon



Wstecz

Żaden z opisanych na stronie plików nie jest przetrzymywany na serwerze. Administrator strony immortaltorrent.pl nie może ponieść konsekwencji prawnych za to co użytkownicy zamieszczają lub piszą na stronie.
Nie możesz używać tego serwisu do rozpowszechniania lub ściągania materiałów do których nie masz odpowiednich praw lub licencji. Użytkownicy zobowiązani są do przestrzeganie tych zasad.
Rejestracja konta jest jednoznaczna z akceptacją zasad.

2017 © immortaltorrent.pl


Najlepsze strony Torrentowe