Torrentów: 137063      Ranga: Gość               Stwórz konto Odzyskiwanie hasła


Kategorie
Filmy
 ⇒ DivX - XviD
 ⇒ RMVB
 ⇒ DVD-R
 ⇒ TV + Seriale
 ⇒ HDTV-HD
 ⇒ VCD - SVCD
 ⇒ x 264
 ⇒  3D
Gry
 ⇒ Gry PC
 ⇒ Gry Konsole
 ⇒ xbox360
Muzyka
 ⇒ Muzyka
 ⇒ Teledyski/Koncerty
Książki - Komiksy
 ⇒ E-Booki + Audio
 ⇒ Komiksy
Inne
 ⇒ XXX
 ⇒ Dla Dzieci
 ⇒ Sport
 ⇒ Pozostałe - Różne
 ⇒ Manga - Anime
 ⇒ GSM - PDA
Aplikacje
 ⇒ Windows
 ⇒ Linux + Macintosh



Detale torrenta

Biały Kieł 2: Legenda o Białym Wilku-White Fang 2: Myth of the White Wolf (1994)[WebRip 1080p x264 by alE13 AC3][Lektor i Napisy Eng][Eng]
Kondycja:
Dodane: 11/08/2017
Rozmiar: 7.62 GB
Uploader: alE13

seed(ów): 1
leecher(ów): 1
Pobrane: 0





Ocena: N/A



http://www.imdb.com/title/tt0111701/
http://www.filmweb.pl/film/Bia%C5%82y+Kie%C5%82+2%3A+Legenda+o+Bia%C5%82ym+Wilku-1994-11633

Plik zawiera Sample.

reżyseria: Ken Olin
scenariusz: David Fallon
gatunek: Familijny,Przygodowy
produkcja: USA
premiera: 15-04-1994
muzyka:         John Debney
zdjęcia:        Hiro Narita
czas:           1h 46min

opis:

In order to save one of the last Alaskin native tribes, Fang bands together with a friend of his master to stop
miners from destroying a sacred land.

Henry jest poszukiwaczem złota; udało mu się zebrać dużą ilość tego drogocennego kruszcu. Z ładunkiem wybrał się tratwą
do najbliższej osady, ale w drodze rwącą rzeką jego tratwa omal nie utonęła. Został uratowany tylko dzięki pomocy młodej
Indianki, która zauważyła, że wpadł do wody. Dziewczyna była przekonana, że tym samym spełniło się proroctwo jej ojca
- indiańskiego wodza, który już jakiś czas temu przepowiedział pojawienie się białego człowieka.

http://i.imgur.com/TM5qAGO.jpg
http://i.imgur.com/91B6qML.jpg
http://i.imgur.com/DZKP6oT.jpg
http://i.imgur.com/SwaZRkI.jpg

obsada:

Scott Bairstow, Charmaine Craig, Al Harrington

dane techniczne:

White Fang 2-Myth of the White Wolf (1994)-alE13.mkv
Format                      : Matroska
Format version              : Version 4 / Version 2
File size                   : 7.57 GiB
Duration                    : 1 h 46 min
Overall bit rate mode       : Variable
Overall bit rate            : 10.2 Mb/s
Movie name                  : White Fang 2: Myth of the White Wolf (1994)-alE13
Encoded date                : UTC 2017-08-11 04:43:35
Writing application         : mkvmerge v8.1.0 ('Psychedelic Postcard') 64bit
Writing library             : libebml v1.3.1 + libmatroska v1.4.2
Cover                       : Yes
Attachments                 : Cover.jpg

Video
ID                          : 1
Format                      : AVC
Format/Info                 : Advanced Video Codec
Format profile              : High@L4
Format settings, CABAC      : Yes
Format settings, RefFrames  : 3 frames
Codec ID                    : V_MPEG4/ISO/AVC
Duration                    : 1 h 46 min
Bit rate mode               : Variable
Bit rate                    : 9 313 kb/s
Maximum bit rate            : 20.0 Mb/s
Width                       : 1 920 pixels
Height                      : 1 080 pixels
Display aspect ratio        : 16:9
Frame rate mode             : Constant
Frame rate                  : 23.976 (24000/1001) FPS
Standard                    : PAL
Color space                 : YUV
Chroma subsampling          : 4:2:0
Bit depth                   : 8 bits
Scan type                   : Progressive
Bits/(Pixel*Frame)          : 0.187
Stream size                 : 6.91 GiB (91%)
Title                       : White Fang 2: Myth of the White Wolf (1994)-alE13
Default                     : Yes
Forced                      : No
Color range                 : Limited
Color primaries             : BT.709
Transfer characteristics    : BT.709
Matrix coefficients         : BT.709

Audio #1
ID                          : 2
Format                      : E-AC-3
Format/Info                 : Enhanced Audio Coding 3
Format settings, Endianness : Big
Codec ID                    : A_EAC3
Duration                    : 1 h 46 min
Bit rate mode               : Constant
Bit rate                    : 640 kb/s
Channel(s)                  : 6 channels
Channel positions           : Front: L C R, Side: L R, LFE
Sampling rate               : 48.0 kHz
Frame rate                  : 187.500 FPS (256 SPF)
Compression mode            : Lossy
Stream size                 : 486 MiB (6%)
Title                       : White Fang 2: Myth of the White Wolf (1994)-alE13_AC3
Language                    : English
Service kind                : Complete Main
Default                     : No
Forced                      : No

Audio #2
ID                          : 3
Format                      : AC-3
Format/Info                 : Audio Coding 3
Format settings, Endianness : Big
Codec ID                    : A_AC3
Duration                    : 1 h 46 min
Bit rate mode               : Constant
Bit rate                    : 256 kb/s
Channel(s)                  : 2 channels
Channel positions           : Front: L R
Sampling rate               : 44.1 kHz
Frame rate                  : 28.711 FPS (1536 SPF)
Bit depth                   : 16 bits
Compression mode            : Lossy
Delay relative to video     : 9 ms
Stream size                 : 194 MiB (3%)
Title                       : White Fang 2: Myth of the White Wolf (1994)-alE13_AC3
Language                    : Polish
Service kind                : Complete Main
Default                     : Yes
Forced                      : No

Text
ID                          : 4
Format                      : UTF-8
Codec ID                    : S_TEXT/UTF8
Codec ID/Info               : UTF-8 Plain Text
Duration                    : 1 h 41 min
Bit rate                    : 30 b/s
Count of elements           : 977
Stream size                 : 22.7 KiB (0%)
Title                       : White Fang 2: Myth of the White Wolf (1994)-alE13_SDH
Language                    : English
Default                     : No
Forced                      : No

Menu
00:00:00.000                : en:Chapter 01
00:11:22.328                : en:Chapter 02
00:21:22.328                : en:Chapter 03
00:30:06.328                : en:Chapter 04
00:41:40.328                : en:Chapter 05
00:56:41.328                : en:Chapter 06
01:08:01.328                : en:Chapter 07
01:19:34.328                : en:Chapter 08
01:34:30.328                : en:Chapter 09
01:43:00.328                : en:Chapter 10
Podobne torrenty
[HDTV-HD] Biały Kieł-White Fang (1991)[WebRip 1080p x264 by alE13 AC3][Lektor i Napisy PL/Eng][Eng]
[x 264] Biały Kieł - White Fang (1991) [BDRip.x264.DualAudio.AC3] [Lektor PL]
[HDTV-HD] Samotny Wilk i Szczenię-Lone Wolf & Cub- White Heaven in Hell (1974)[BRRip 1080p x264 by alE13 AC3/FLAC][Napisy PL/Eng][Jap]
[HDTV-HD] Białe Boże Narodzenie-White Christmas (1954) [BRRip 1080p.x264 by alE13.DTS-MA/Core/AC3][Lektor i Napisy PL][Eng]
[x 264] Król Artur: Legenda Miecza-King Arthur: Legend of the Sword (2017)[WEBRip 1080p x264 by alE13 AC3][Napisy PL][Eng]
[HDTV-HD] Biały Kanion-The Big Country (1958)[BRRip 1080p x264 by alE13 AC3/DTS][Lektor i Napisy PL/Eng][Eng]
[HDTV-HD] Kryjówka Białego Węża-The Lair of the White Worm (1988)[BDRip 1080p by alE13 AC3/DTS][Lektor i Napisy PL/Eng][Eng]
[HDTV-HD] Barwy Nocy-Color of night (Director\'s Cut) (1994)-alE13[BRRip 1080p x264 by alE13 AC3][Lektor i Napisy PL/Eng][Eng]
[HDTV-HD] Roy Orbison & Friends: Black and White Night (1988)[BRRip 1080p x264 by alE13 DTS/AC3][Eng]
[DVD-R] Biały słoń - Elephant White (2011) [PAL.DVD5] [Lektor i Napisy PL]
Szczegóły torrenta
Trackerhttp://tracker.devil-torrents.pl/announce
Multitracker http://tracker.devil-torrents.pl/announce
http://tracker.torrentyorg.pl/announce
udp://tracker.opentrackr.org:1337/announce
udp://tracker.leechers-paradise.org:6969/announce
udp://tracker.ilibr.org:80/announce
udp://tracker.coppersurfer.tk:6969/announce
udp://p4p.arenabg.ch:1337/announce
udp://inferno.demonoid.pw:3391/announce

Kategoria:Filmy » HDTV-HD
Dodane11/08/2017 11:08:03
Ostatnie Uaktualnienie11/08/2017 11:35:03
Pokaż/Ukryj pliki:
14 plików
NIKT JESZCZE NIE DODAŁ KOMENTARZA

DODAJ KOMENTARZ
Więcej Emoticon



Wstecz

Żaden z opisanych na stronie plików nie jest przetrzymywany na serwerze. Administrator strony immortaltorrent.pl nie może ponieść konsekwencji prawnych za to co użytkownicy zamieszczają lub piszą na stronie.
Nie możesz używać tego serwisu do rozpowszechniania lub ściągania materiałów do których nie masz odpowiednich praw lub licencji. Użytkownicy zobowiązani są do przestrzeganie tych zasad.
Rejestracja konta jest jednoznaczna z akceptacją zasad.

2017 © immortaltorrent.pl


Najlepsze strony Torrentowe