Torrentów: 134315      Ranga: Gość               Stwórz konto Odzyskiwanie hasła


Kategorie
Filmy
 ⇒ DivX - XviD
 ⇒ RMVB
 ⇒ DVD-R
 ⇒ TV + Seriale
 ⇒ HDTV-HD
 ⇒ VCD - SVCD
 ⇒ x 264
 ⇒  3D
Gry
 ⇒ Gry PC
 ⇒ Gry Konsole
 ⇒ xbox360
Muzyka
 ⇒ Muzyka
 ⇒ Teledyski/Koncerty
Książki - Komiksy
 ⇒ E-Booki + Audio
 ⇒ Komiksy
Inne
 ⇒ XXX
 ⇒ Dla Dzieci
 ⇒ Sport
 ⇒ Pozostałe - Różne
 ⇒ Manga - Anime
 ⇒ GSM - PDA
Aplikacje
 ⇒ Windows
 ⇒ Linux + Macintosh



Detale torrenta

Purpurowy Deszcz-Purple Rain (1984)[BRRip 1080p x264 by alE13 AC3/DTS][Lektor i Napisy PL/Eng][Eng]
Kondycja:
Dodane: 13/11/2016
Rozmiar: 9.03 GB
Uploader: alE13

seed(ów): 1
leecher(ów): 0
Pobrane: 0





Ocena: N/A



http://www.filmweb.pl/film/Purpurowy+deszcz-1984-35157
http://www.imdb.com/title/tt0087957/

Remastered Version.

reżyseria: Albert Magnoli
scenariusz: William Blinn,Albert Magnoli
gatunek: Biograficzny,Muzyczny
produkcja: USA
premiera: 27-07-1984
muzyka:         Michel Colombier,Prince
zdjęcia:        Donald E. Thorin
czas:           1h 51mn

opis:

A young musician, tormented by an abusive situation at home, must contend with a rival singer,
a burgeoning romance, and his own dissatisfied band, as his star begins to rise.

Film jest quasi-autobiograficzną historią młodości i kariery geniusza rocka lat 80 - Rogersa Nelsona,
znanego jako Prince. Osią fabularną filmu jest konflikt między zespołami the Revolution dowodzonego
przez Kida (Prince) i the Time. Równolegle z filmem ukazał się świetny LP "Purple Rain" zawierający
oczywiście znakomite piosenki z fimu, jak utwór tytułowy, "When Doves Cry", "Let's Go Crazy".

obsada:

Prince, Apollonia Kotero, Morris Day

dane techniczne:

Purple Rain (1984)-alE13.mkv
Format                      : Matroska
Format version              : Version 4 / Version 2
File size                   : 8.94 GiB
Duration                    : 1 h 51 min
Overall bit rate            : 11.5 Mb/s
Movie name                  : Purple Rain (1984)-alE13
Encoded date                : UTC 2016-11-13 05:58:56
Writing application         : mkvmerge v8.1.0 ('Psychedelic Postcard') 64bit
Writing library             : libebml v1.3.1 + libmatroska v1.4.2
Cover                       : Yes
Attachments                 : Cover.jpg

Video
ID                          : 1
Format                      : AVC
Format/Info                 : Advanced Video Codec
Format profile              : High@L4.1
Format settings, CABAC      : Yes
Format settings, ReFrames   : 4 frames
Codec ID                    : V_MPEG4/ISO/AVC
Duration                    : 1 h 51 min
Bit rate                    : 9 748 kb/s
Width                       : 1 920 pixels
Height                      : 1 080 pixels
Display aspect ratio        : 16:9
Frame rate mode             : Constant
Frame rate                  : 23.976 (24000/1001) FPS
Color space                 : YUV
Chroma subsampling          : 4:2:0
Bit depth                   : 8 bits
Scan type                   : Progressive
Bits/(Pixel*Frame)          : 0.196
Stream size                 : 7.57 GiB (85%)
Title                       : Purple Rain (1984)-alE13
Writing library             : x264 core 148 r2705 3f5ed56
Default                     : Yes
Forced                      : No

Audio #1
ID                          : 2
Format                      : DTS
Format/Info                 : Digital Theater Systems
Mode                        : 16
Format settings, Endianness : Big
Codec ID                    : A_DTS
Duration                    : 1 h 51 min
Bit rate mode               : Constant
Bit rate                    : 1 509 kb/s
Channel(s)                  : 6 channels
Channel positions           : Front: L C R, Side: L R, LFE
Sampling rate               : 48.0 kHz
Frame rate                  : 93.750 FPS (512 spf)
Bit depth                   : 24 bits
Compression mode            : Lossy
Stream size                 : 1.17 GiB (13%)
Title                       : Purple Rain (1984)-alE13_DTS
Language                    : English
Default                     : No
Forced                      : No

Audio #2
ID                          : 3
Format                      : AC-3
Format/Info                 : Audio Coding 3
Mode extension              : CM (complete main)
Format settings, Endianness : Big
Codec ID                    : A_AC3
Duration                    : 1 h 51 min
Bit rate mode               : Constant
Bit rate                    : 256 kb/s
Channel(s)                  : 2 channels
Channel positions           : Front: L R
Sampling rate               : 48.0 kHz
Frame rate                  : 31.250 FPS (1536 spf)
Bit depth                   : 16 bits
Compression mode            : Lossy
Stream size                 : 204 MiB (2%)
Title                       : Purple Rain (1984)-alE13_AC3
Language                    : Polish
Default                     : Yes
Forced                      : No

Text #1
ID                          : 4
Format                      : UTF-8
Codec ID                    : S_TEXT/UTF8
Codec ID/Info               : UTF-8 Plain Text
Duration                    : 1 h 42 min
Bit rate                    : 28 b/s
Count of elements           : 785
Stream size                 : 21.1 KiB (0%)
Title                       : Purple Rain (1984)-alE13
Language                    : Polish
Default                     : No
Forced                      : No

Text #2
ID                          : 5
Format                      : UTF-8
Codec ID                    : S_TEXT/UTF8
Codec ID/Info               : UTF-8 Plain Text
Duration                    : 1 h 51 min
Bit rate                    : 28 b/s
Count of elements           : 736
Stream size                 : 22.9 KiB (0%)
Title                       : Purple Rain (1984)-alE13
Language                    : English
Default                     : No
Forced                      : No

Menu
00:00:00.000                : en:00:00:00.000
00:08:14.786                : en:00:08:14.786
00:11:01.661                : en:00:11:01.661
00:12:04.807                : en:00:12:04.807
00:16:09.844                : en:00:16:09.844
00:19:04.560                : en:00:19:04.560
00:23:43.839                : en:00:23:43.839
00:25:09.925                : en:00:25:09.925
00:28:35.088                : en:00:28:35.088
00:32:24.818                : en:00:32:24.818
00:37:45.263                : en:00:37:45.263
00:44:12.900                : en:00:44:12.900
00:45:35.566                : en:00:45:35.566
00:47:15.458                : en:00:47:15.458
00:50:15.596                : en:00:50:15.596
00:52:56.590                : en:00:52:56.590
00:57:14.139                : en:00:57:14.139
01:00:30.836                : en:01:00:30.836
01:04:57.310                : en:01:04:57.310
01:07:36.302                : en:01:07:36.302
01:09:33.378                : en:01:09:33.378
01:12:32.390                : en:01:12:32.390
01:16:47.978                : en:01:16:47.978
01:21:04.526                : en:01:21:04.526
01:27:29.161                : en:01:27:29.161
01:36:21.776                : en:01:36:21.776
01:41:21.826                : en:01:41:21.826
01:45:43.754                : en:01:45:43.754
Podobne torrenty
[x 264] Purpurowy deszcz - Purple Rain 1984 [720p.BDRip.x264]
[DVD-R] Purpurowy deszcz - Purple Rain *1984* [PAL] [DVD5] [Napisy PL]
[x 264] Czarny deszcz - Black Rain (1989) [BRRip.1080p.x264.DTS/AC3][Napisy PL/Eng][Eng]
[HDTV-HD] Coś-The Thing (1982)[BRRip 1080p x264 by alE13 AC3][Lektor i Napisy PL/Eng][Eng]
[HDTV-HD] Gladiator(2000)[BRRip 1080p x264 by alE13 AC3][Lektor i Napisy PL/Eng][Eng]
[HDTV-HD] Centurion (2010)[BRRip 1080p x264 by alE13 DTS/AC3][Lektor i Napisy PL/Eng][Eng]
[HDTV-HD] Bez wyjścia-No Way Out (1987)[BRRip 1080p x264 by alE13 AC3][Lektor i Napisy PL/Eng][Eng]
[HDTV-HD] Equilibrium (2002)[BRRip 1080p x264 by alE13 AC3][Lektor i Napisy PL/Eng][Eng]
[HDTV-HD] 100 Karabinów-100 Rifles (1969) [BRRip 1080p x264 by alE13 AAC/DTS][Lektor i Napisy PL/Eng][Eng]
[HDTV-HD] Kleopatra-Cleopatra (1963)[BRRip 1080p x264 by alE13 AC3/DTS][Lektor i Napisy PL/Eng][Eng]
Szczegóły torrenta
Trackerhttp://tracker.torrentyorg.pl/announce
Multitracker http://tracker.torrentyorg.pl/announce
http://mgtracker.org:2710/announce
http://pow7.com:80/announce
http://pow7.com/announce
udp://tracker.leechers-paradise.org:6969/announce
udp://tracker.coppersurfer.tk:6969/announce
udp://tracker.opentrackr.org:1337/announce
udp://tracker.coppersurfer.tk:6969/announce
udp://tracker.leechers-paradise.org:6969/announce
udp://eddie4.nl:6969/announce
udp://tracker.coppersurfer.tk:6969/announce
udp://p4p.arenabg.com:1337/announce
udp://p4p.arenabg.ch:1337/announce
udp://tracker.internetwarriors.net:1337/announce
udp://tracker.openbittorrent.com:80/announce
udp://tracker.piratepublic.com:1337/announce
udp://tracker.opentrackr.org:1337/announce
udp://explodie.org:6969/announce
udp://p4p.arenabg.ch:1337/announce
udp://inferno.demonoid.ooo:3392/announce
udp://inferno.demonoid.pw:3393/announce
udp://tracker.coppersurfer.tk:6969/announce
udp://zer0day.to:1337/announce
udp://tracker.ilibr.org:6969/announce
udp://tracker.leechers-paradise.org:6969/announce
udp://eddie4.nl:6969/announce
udp://tracker.ilibr.org:80/announce

Kategoria:Filmy » HDTV-HD
Dodane13/11/2016 07:11:36
Ostatnie Uaktualnienie13/11/2016 07:49:36
Pokaż/Ukryj pliki:
15 plików
NIKT JESZCZE NIE DODAŁ KOMENTARZA

DODAJ KOMENTARZ
Więcej Emoticon



Wstecz

Żaden z opisanych na stronie plików nie jest przetrzymywany na serwerze. Administrator strony immortaltorrent.pl nie może ponieść konsekwencji prawnych za to co użytkownicy zamieszczają lub piszą na stronie.
Nie możesz używać tego serwisu do rozpowszechniania lub ściągania materiałów do których nie masz odpowiednich praw lub licencji. Użytkownicy zobowiązani są do przestrzeganie tych zasad.
Rejestracja konta jest jednoznaczna z akceptacją zasad.

2017 © immortaltorrent.pl


Najlepsze strony Torrentowe