Torrentów: 135568      Ranga: Gość               Stwórz konto Odzyskiwanie hasła


Kategorie
Filmy
 ⇒ DivX - XviD
 ⇒ RMVB
 ⇒ DVD-R
 ⇒ TV + Seriale
 ⇒ HDTV-HD
 ⇒ VCD - SVCD
 ⇒ x 264
 ⇒  3D
Gry
 ⇒ Gry PC
 ⇒ Gry Konsole
 ⇒ xbox360
Muzyka
 ⇒ Muzyka
 ⇒ Teledyski/Koncerty
Książki - Komiksy
 ⇒ E-Booki + Audio
 ⇒ Komiksy
Inne
 ⇒ XXX
 ⇒ Dla Dzieci
 ⇒ Sport
 ⇒ Pozostałe - Różne
 ⇒ Manga - Anime
 ⇒ GSM - PDA
Aplikacje
 ⇒ Windows
 ⇒ Linux + Macintosh



Detale torrenta

Hotel śmierci - See No Evil (2006)[BDRip.x264.AC3DTS][Lektor i Napisy PL][Eng]
Kondycja:
Dodane: 13/10/2014
Rozmiar: 3.62 GB
Uploader: JoannaC

seed(ów): 38
leecher(ów): 17
Pobrane: 152





Ocena: N/A

..::(Info)::..

gatunek: Horror
produkcja: USA
premiera: 19-05-2006
reżyseria: Gregory Dark
scenariusz: Dan Madigan
muzyka: Tyler Bates
zdjęcia: Ben Nott
czas: 01:23:59

..::(Opis)::..

A group of delinquents are sent to clean the Blackwell Hotel. Little do they know reclusive psychopath Jacob Goodnight (Jacobs) has holed away in the rotting hotel. When one of the teens is captured, those who remain -- a group that includes the cop who put a bullet in Goodnight's head four years ago -- band together to survive against the brutal killer.

Grupa więźniów zostaje wysłana do posprzątania hotelu. Okazuje się, że miejsce jest zamieszkane przez psychopatycznego mordercę.


..::(Obsada)::..

Glenn Jacobs, Christina Vidal, Michael J. Pagan


..::(Dane Techniczne)::..

See No Evil (2006)-alE13.mkv
Format                                   : Matroska
Format version                           : Version 4 / Version 2
File size                                : 3.62 GiB
Duration                                 : 1h 23mn
Overall bit rate                         : 6 171 Kbps
Movie name                               : See No Evil (2006)_Rip.-alE13
Encoded date                             : UTC 2014-10-11 13:42:55
Writing application                      : mkvmerge v7.1.0
Writing library                          : libebml v1.3.0 + libmatroska v1.4.1
DURATION                                 : 01:22:38.000000000

Video
ID                                       : 1
Format                                   : AVC
Format/Info                              : Advanced Video Codec
Format profile                           : High@L4.1
Format settings, CABAC                   : Yes
Format settings, ReFrames                : 2 frames
Codec ID                                 : V_MPEG4/ISO/AVC
Duration                                 : 1h 23mn
Bit rate                                 : 4 403 Kbps
Width                                    : 1 280 pixels
Height                                   : 720 pixels
Display aspect ratio                     : 16:9
Frame rate mode                          : Constant
Frame rate                               : 23.976 fps
Color space                              : YUV
Chroma subsampling                       : 4:2:0
Bit depth                                : 8 bits
Scan type                                : Progressive
Bits/(Pixel*Frame)                       : 0.199
Stream size                              : 2.51 GiB (69%)
Title                                    : See No Evil (2006)_Rip.-alE13
Writing library                          : x264 core 142
Color primaries                          : BT.709
Transfer characteristics                 : BT.709
Matrix coefficients                      : BT.709

Audio #1
ID                                       : 2
Format                                   : AC-3
Format/Info                              : Audio Coding 3
Mode extension                           : CM (complete main)
Format settings, Endianness              : Big
Codec ID                                 : A_AC3
Duration                                 : 1h 23mn
Bit rate mode                            : Constant
Bit rate                                 : 256 Kbps
Channel(s)                               : 2 channels
Channel positions                        : Front: L R
Sampling rate                            : 48.0 KHz
Bit depth                                : 16 bits
Compression mode                         : Lossy
Delay relative to video                  : 100ms
Stream size                              : 154 MiB (4%)
Title                                    : See No Evil (2006)_Synchro.-alE13
Language                                 : Polish

Audio #2
ID                                       : 3
Format                                   : DTS
Format/Info                              : Digital Theater Systems
Mode                                     : 16
Format settings, Endianness              : Big
Codec ID                                 : A_DTS
Duration                                 : 1h 23mn
Bit rate mode                            : Constant
Bit rate                                 : 1 509 Kbps
Channel(s)                               : 6 channels
Channel positions                        : Front: L C R, Side: L R, LFE
Sampling rate                            : 48.0 KHz
Bit depth                                : 24 bits
Compression mode                         : Lossy
Stream size                              : 907 MiB (24%)
Title                                    : See No Evil (2006)-alE13_DTS
Language                                 : English

Text #1
ID                                       : 4
Format                                   : UTF-8
Codec ID                                 : S_TEXT/UTF8
Codec ID/Info                            : UTF-8 Plain Text
Title                                    : See No Evil (2006)-alE13_color
Language                                 : Polish

Text #2
ID                                       : 5
Format                                   : UTF-8
Codec ID                                 : S_TEXT/UTF8
Codec ID/Info                            : UTF-8 Plain Text
Title                                    : See No Evil (2006)-alE13
Language                                 : Polish

Text #3
ID                                       : 6
Format                                   : UTF-8
Codec ID                                 : S_TEXT/UTF8
Codec ID/Info                            : UTF-8 Plain Text
Title                                    : See No Evil (2006)-alE13
Language                                 : English

Text #4
ID                                       : 7
Format                                   : UTF-8
Codec ID                                 : S_TEXT/UTF8
Codec ID/Info                            : UTF-8 Plain Text
Title                                    : See No Evil (2006)-alE13
Language                                 : French

Text #5
ID                                       : 8
Format                                   : UTF-8
Codec ID                                 : S_TEXT/UTF8
Codec ID/Info                            : UTF-8 Plain Text
Title                                    : See No Evil (2006)-alE13
Language                                 : Persian

Text #6
ID                                       : 9
Format                                   : UTF-8
Codec ID                                 : S_TEXT/UTF8
Codec ID/Info                            : UTF-8 Plain Text
Title                                    : See No Evil (2006)-alE13
Language                                 : Romanian

Text #7
ID                                       : 10
Format                                   : UTF-8
Codec ID                                 : S_TEXT/UTF8
Codec ID/Info                            : UTF-8 Plain Text
Title                                    : See No Evil (2006)-alE13
Language                                 : Vietnamese
Podobne torrenty
[x 264] Hotel śmierci - See No Evil *2006* [720p.BluRay.x264]
[DivX - XviD] Hotel śmierci - See No Evil *2006* [DVDRip.XviD] [Lektor PL]
[RMVB] Hotel śmierci - See No Evil *2006* [DVDRip.RMVB] [Lektor PL]
[DivX - XviD] Hotel śmierci - See No Evil *2006* [DVDRip.XviD] [Lektor PL]
[RMVB] Hotel śmierci 2 - See No Evil 2 *2014* [BRRiP] [RMVB] [Napisy PL]
[DivX - XviD] Hotel śmierci 2 - See No Evil 2 *2014* [BRRiP.XViD-K12] [Napisy PL] [marcinc33]
[x 264] Pompeje: Apokalipsa - Apocalypse Pompeii (2014)[BDRip.x264.AC3DTS][Napisy PL][Eng]
[x 264] Klan Sycylijczyków - Le Clan des Siciliens (1969)[BDRip.x264.AC3DTS][Napisy PLFreEng][Fre]
[x 264] Zawód pan młody - The Marrying Man (1991)[BDRip 720p.x264.AC3DTS][Lektor PL][Eng]
[DivX - XviD] Hotel Śmierci - See No Evil *2006* [DVDRip] [RMVB] [Lektor PL]
Szczegóły torrenta
Trackerhttp://tracker.aletorrenty.pl:2710/announce
Multitracker http://tracker.aletorrenty.pl:2710/announce
http://inferno.demonoid.ph:3389/announce
http://tracker.torrentfrancais.com/announce
http://tracker.humblebundle.com:2710/announce
http://exodus.desync.com:6969/announce
http://94.228.192.98/announce
http://www.tlv.cc:7777/announce
http://bttracker.crunchbanglinux.org:6969/announce
http://tracker.torrent-polska.info:2710/announce
http://tracker.torrent-polska.eu:2710/announce
http://tracker.torrenty.org:6969/announce
http://tracker.best-torrents.net:6969/announce
http://bigfoot1942.sektori.org:6969/announce
udp://tracker.aletorrenty.pl:2710/announce
udp://glotorrents.com:6969/announce

Kategoria:Filmy » x 264
Dodane13/10/2014 17:10:29
Ostatnie Uaktualnienie13/10/2014 17:40:29
Pokaż/Ukryj pliki:
9 plików
NIKT JESZCZE NIE DODAŁ KOMENTARZA

DODAJ KOMENTARZ
Więcej Emoticon



Wstecz

Żaden z opisanych na stronie plików nie jest przetrzymywany na serwerze. Administrator strony immortaltorrent.pl nie może ponieść konsekwencji prawnych za to co użytkownicy zamieszczają lub piszą na stronie.
Nie możesz używać tego serwisu do rozpowszechniania lub ściągania materiałów do których nie masz odpowiednich praw lub licencji. Użytkownicy zobowiązani są do przestrzeganie tych zasad.
Rejestracja konta jest jednoznaczna z akceptacją zasad.

2017 © immortaltorrent.pl


Najlepsze strony Torrentowe