Torrentów: 138518      Ranga: Gość               Stwórz konto Odzyskiwanie hasła


Kategorie
Filmy
 ⇒ DivX - XviD
 ⇒ RMVB
 ⇒ DVD-R
 ⇒ TV + Seriale
 ⇒ HDTV-HD
 ⇒ VCD - SVCD
 ⇒ x 264
 ⇒  3D
Gry
 ⇒ Gry PC
 ⇒ Gry Konsole
 ⇒ xbox360
Muzyka
 ⇒ Muzyka
 ⇒ Teledyski/Koncerty
Książki - Komiksy
 ⇒ E-Booki + Audio
 ⇒ Komiksy
Inne
 ⇒ XXX
 ⇒ Dla Dzieci
 ⇒ Sport
 ⇒ Pozostałe - Różne
 ⇒ Manga - Anime
 ⇒ GSM - PDA
Aplikacje
 ⇒ Windows
 ⇒ Linux + Macintosh



Detale torrenta

R-Point (Arpointeu) (2004)[BRRip 1080p x264 by alE13 AC3/DTS][Lektor i Napisy PL/Eng][Kor]
Kondycja:
Dodane: 02/08/2017
Rozmiar: 8.25 GB
Uploader: alE13

seed(ów): 1
leecher(ów): 0
Pobrane: 0





Ocena: N/A



http://www.imdb.com/title/tt0417072/
http://www.filmweb.pl/R.Point

Plik zawiera Sample.

reżyseria: Su-chang Kong
scenariusz: Su-chang Kong
gatunek: Horror,Wojenny
produkcja: Korea Południowa
premiera: 13-08-2004
muzyka:         Pa-lan Dal
zdjęcia:        Hyeong-jing Seok
czas:           1h 47min

opis:

During the Vietnam War, a South Korean base receives a radio transmission from a missing squad, presumed dead,
and sends a platoon to rescue the lost squad from the R-Point.

Rok 1972, wojna w Wietnamie zmierza ku końcowi. Choi Tae-in (Woo-seong Kam) dręczy poczucie winy za
śmierć swoich towarzyszy, którzy zginęli w krwawej walce. Podczas rekonwalescencji myśli o powrocie
do swojej jednostki. Jednak szef Wojskowego Biura Śledczego zleca mu dowództwo nad oddziałem zwiadowczym
i przeprowadzenie operacji w głębi dżungli. Wkrótce jednostka łączności przechwytuje tajemnicze komunikaty
radiowe nadane przez żołnierzy, którzy zaginęli pół roku wcześniej i których uznano za poległych. Choi Tae-in  
i jego ludzie wyruszają na poszukiwanie oddziału.

http://i.imgur.com/QXjsBqY.jpg
http://i.imgur.com/rReg0vQ.jpg
http://i.imgur.com/gTE6iS6.jpg
http://i.imgur.com/Cz9He5Q.jpg

obsada:

Woo-seong Kam, Byung-ho Son, Sun-kyun Lee

dane techniczne:

R-Point (Arpointeu) (2004)-alE13.mkv
Format                      : Matroska
Format version              : Version 4 / Version 2
File size                   : 8.20 GiB
Duration                    : 1 h 47 min
Overall bit rate mode       : Variable
Overall bit rate            : 10.9 Mb/s
Movie name                  : R-Point (Arpointeu) (2004)-alE13
Encoded date                : UTC 2017-08-02 05:02:15
Writing application         : mkvmerge v8.1.0 ('Psychedelic Postcard') 64bit
Writing library             : libebml v1.3.1 + libmatroska v1.4.2
Cover                       : Yes
Attachments                 : Cover.jpg

Video
ID                          : 1
Format                      : AVC
Format/Info                 : Advanced Video Codec
Format profile              : High@L4
Format settings, CABAC      : Yes
Format settings, RefFrames  : 3 frames
Codec ID                    : V_MPEG4/ISO/AVC
Duration                    : 1 h 47 min
Bit rate mode               : Variable
Bit rate                    : 8 522 kb/s
Maximum bit rate            : 20.0 Mb/s
Width                       : 1 848 pixels
Height                      : 1 008 pixels
Display aspect ratio        : 1.85:1
Frame rate mode             : Constant
Frame rate                  : 29.970 (30000/1001) FPS
Standard                    : PAL
Color space                 : YUV
Chroma subsampling          : 4:2:0
Bit depth                   : 8 bits
Scan type                   : Progressive
Bits/(Pixel*Frame)          : 0.153
Stream size                 : 6.39 GiB (78%)
Title                       : R-Point (Arpointeu) (2004)-alE13
Default                     : Yes
Forced                      : No
Color range                 : Limited
Color primaries             : BT.709
Transfer characteristics    : BT.709
Matrix coefficients         : BT.709

Audio #1
ID                          : 2
Format                      : AC-3
Format/Info                 : Audio Coding 3
Format settings, Endianness : Big
Codec ID                    : A_AC3
Duration                    : 1 h 47 min
Bit rate mode               : Constant
Bit rate                    : 256 kb/s
Channel(s)                  : 2 channels
Channel positions           : Front: L R
Sampling rate               : 44.1 kHz
Frame rate                  : 28.711 FPS (1536 SPF)
Bit depth                   : 16 bits
Compression mode            : Lossy
Delay relative to video     : 25 ms
Stream size                 : 197 MiB (2%)
Title                       : R-Point (Arpointeu) (2004)-alE13_AC3
Language                    : Polish
Service kind                : Complete Main
Default                     : Yes
Forced                      : No

Audio #2
ID                          : 3
Format                      : DTS
Format/Info                 : Digital Theater Systems
Mode                        : 16
Format settings, Endianness : Big
Codec ID                    : A_DTS
Duration                    : 1 h 47 min
Bit rate mode               : Constant
Bit rate                    : 1 509 kb/s
Channel(s)                  : 6 channels
Channel positions           : Front: L C R, Side: L R, LFE
Sampling rate               : 48.0 kHz
Frame rate                  : 93.750 FPS (512 SPF)
Bit depth                   : 16 bits
Compression mode            : Lossy
Stream size                 : 1.13 GiB (14%)
Title                       : R-Point (Arpointeu) (2004)-alE13_DTS
Language                    : Korean
Default                     : No
Forced                      : No

Audio #3
ID                          : 4
Format                      : AC-3
Format/Info                 : Audio Coding 3
Format settings, Endianness : Big
Codec ID                    : A_AC3
Duration                    : 1 h 47 min
Bit rate mode               : Constant
Bit rate                    : 640 kb/s
Channel(s)                  : 6 channels
Channel positions           : Front: L C R, Side: L R, LFE
Sampling rate               : 48.0 kHz
Frame rate                  : 31.250 FPS (1536 SPF)
Bit depth                   : 16 bits
Compression mode            : Lossy
Stream size                 : 491 MiB (6%)
Title                       : R-Point (Arpointeu) (2004)-alE13_AC3
Language                    : Korean
Service kind                : Complete Main
Default                     : No
Forced                      : No

Text #1
ID                          : 5
Format                      : UTF-8
Codec ID                    : S_TEXT/UTF8
Codec ID/Info               : UTF-8 Plain Text
Duration                    : 1 h 44 min
Bit rate                    : 33 b/s
Count of elements           : 865
Stream size                 : 25.7 KiB (0%)
Title                       : R-Point (Arpointeu) (2004)-alE13
Language                    : Polish
Default                     : No
Forced                      : No

Text #2
ID                          : 6
Format                      : UTF-8
Codec ID                    : S_TEXT/UTF8
Codec ID/Info               : UTF-8 Plain Text
Duration                    : 1 h 44 min
Bit rate                    : 33 b/s
Count of elements           : 865
Stream size                 : 25.7 KiB (0%)
Title                       : R-Point (Arpointeu) (2004)-alE13
Language                    : English
Default                     : No
Forced                      : No
Podobne torrenty
[DivX - XviD] R-Point - Arpointeu *2004* [DVDRip] [XviD-NN] [Lektor PL]
[HDTV-HD] Król Artur-King Arthur (2004)[BRRip 1080p x264 by alE13 PCM/AC3][Lektor i Napisy PL/Multi Subs][Eng]
[HDTV-HD] Check Point (2017) [BDRip 1080p x264 by alE13 AC3/DTS][Napisy PL/Eng][Eng]
[HDTV-HD] Miasto Aniołów-City of Angels (1998)-alE13[BRRip 1080p x264 by alE13 AC3/DTS][Lektor i Napisy PL/Eng][Eng]
[HDTV-HD] Barwy Nocy-Color of night (Director\'s Cut) (1994)-alE13[BRRip 1080p x264 by alE13 AC3][Lektor i Napisy PL/Eng][Eng]
[HDTV-HD] Szybcy i wściekli 8-The Fate of the Furious (2017)-alE13[BRRip 1080p x264 by alE13 AC3/DTS]Napisy PL/Eng][Eng]
[HDTV-HD] Bez wyjścia-No Way Out (1987)[BRRip 1080p x264 by alE13 AC3][Lektor i Napisy PL/Eng][Eng]
[HDTV-HD] The Shadows: The Final Tour (2004)[BRRip 1080p x264 by alE13 DTS/AC3][Eng]
[HDTV-HD] The Shadows: The Final Tour (2004)[BRRip 1080p x264 by alE13 DTS/AC3][Eng]
[HDTV-HD] Coś-The Thing (1982)[BRRip 1080p x264 by alE13 AC3][Lektor i Napisy PL/Eng][Eng]
Szczegóły torrenta
Trackerhttp://tracker.devil-torrents.pl/announce
Multitracker http://tracker.devil-torrents.pl/announce
http://tracker.torrentyorg.pl/announce
udp://tracker.opentrackr.org:1337/announce
udp://tracker.leechers-paradise.org:6969/announce
udp://tracker.ilibr.org:80/announce
udp://tracker.coppersurfer.tk:6969/announce
udp://p4p.arenabg.ch:1337/announce
udp://inferno.demonoid.pw:3391/announce

Kategoria:Filmy » HDTV-HD
Dodane02/08/2017 07:08:46
Ostatnie Uaktualnienie02/08/2017 07:35:46
Pokaż/Ukryj pliki:
15 plików
NIKT JESZCZE NIE DODAŁ KOMENTARZA

DODAJ KOMENTARZ
Więcej Emoticon



Wstecz

Żaden z opisanych na stronie plików nie jest przetrzymywany na serwerze. Administrator strony immortaltorrent.pl nie może ponieść konsekwencji prawnych za to co użytkownicy zamieszczają lub piszą na stronie.
Nie możesz używać tego serwisu do rozpowszechniania lub ściągania materiałów do których nie masz odpowiednich praw lub licencji. Użytkownicy zobowiązani są do przestrzeganie tych zasad.
Rejestracja konta jest jednoznaczna z akceptacją zasad.

2017 © immortaltorrent.pl


Najlepsze strony Torrentowe