Torrentów: 136432      Ranga: Gość               Stwórz konto Odzyskiwanie hasła


Kategorie
Filmy
 ⇒ DivX - XviD
 ⇒ RMVB
 ⇒ DVD-R
 ⇒ TV + Seriale
 ⇒ HDTV-HD
 ⇒ VCD - SVCD
 ⇒ x 264
 ⇒  3D
Gry
 ⇒ Gry PC
 ⇒ Gry Konsole
 ⇒ xbox360
Muzyka
 ⇒ Muzyka
 ⇒ Teledyski/Koncerty
Książki - Komiksy
 ⇒ E-Booki + Audio
 ⇒ Komiksy
Inne
 ⇒ XXX
 ⇒ Dla Dzieci
 ⇒ Sport
 ⇒ Pozostałe - Różne
 ⇒ Manga - Anime
 ⇒ GSM - PDA
Aplikacje
 ⇒ Windows
 ⇒ Linux + Macintosh



Detale torrenta

Sissi-Młoda Cesarzowa-Sissi-Die junge Kaiserin (1956)[BRRip 1080p x264 by alE13 AC3/DTS][Lektor i Napisy PL/Eng/Ger][Ger]
Kondycja:
Dodane: 13/05/2017
Rozmiar: 9.35 GB
Uploader: alE13

seed(ów): 1
leecher(ów): 0
Pobrane: 0





Ocena: N/A



http://www.imdb.com/title/tt0049762/
http://www.filmweb.pl/film/Sissi+-+m%C5%82oda+cesarzowa-1956-100317

Audio DTS  w osobnym pliku.
Plik zawiera Sample.


reżyseria: Ernst Marischka
scenariusz: Ernst Marischka
gatunek: Kostiumowy,Romans,Dramat historyczny
produkcja: Germany
premiera: grudzień 1956
muzyka:         Anton Profes
zdjęcia:        Bruno Mondi
czas:           1h 45min

opis:

The second in a trilogy of movies about Elisabeth "Sissi" of Austria, the film chronicles the married life
of the young empress as she tries to adjust to formal and strict life in the palace and an overbearing mother-in-law.

Druga część opowieści o losach Elżbiety Bawarskiej, znanej jako Sissi (Romy Schneider). Po ślubie Sissi
i Franciszek Józef (Karlheinz Böhm) opuszczają Wiedeń i udają się do Hofburga już jako para cesarska.
Liczne konwenanse krępujące życie przyzwyczajonej do wolności młodej cesarzowej, a także konflikt z arcyksiężną
Zofią powodują, że Sissi coraz bardziej oddala się od nowego otoczenia. Stosunki z Zofią ulegają dalszemu
pogorszeniu po narodzinach córeczki Sissi...

http://i.imgur.com/RYOZG2Y.jpg
http://i.imgur.com/9CLU7x0.jpg
http://i.imgur.com/i2JLWTC.jpg
http://i.imgur.com/Y4JCgoh.jpg

obsada:

Romy Schneider, Karlheinz Böhm, Magda Schneider

dane techniczne:

Sissi - Die junge Kaiserin (1956)-alE13.mkv
Format                      : Matroska
Format version              : Version 4 / Version 2
File size                   : 7.78 GiB
Duration                    : 1 h 45 min
Overall bit rate            : 10.5 Mb/s
Movie name                  : Sissi - Die junge Kaiserin (1956)-alE13
Encoded date                : UTC 2017-05-13 04:02:25
Writing application         : mkvmerge v8.1.0 ('Psychedelic Postcard') 64bit
Writing library             : libebml v1.3.1 + libmatroska v1.4.2
Cover                       : Yes
Attachments                 : Cover.jpg

Video
ID                          : 1
Format                      : AVC
Format/Info                 : Advanced Video Codec
Format profile              : High@L4.1
Format settings, CABAC      : Yes
Format settings, ReFrames   : 2 frames
Codec ID                    : V_MPEG4/ISO/AVC
Duration                    : 1 h 45 min
Bit rate                    : 9 956 kb/s
Width                       : 1 440 pixels
Height                      : 1 080 pixels
Display aspect ratio        : 4:3
Frame rate mode             : Variable
Frame rate                  : 23.872 FPS
Original frame rate         : 23.976 (24000/1001) FPS
Color space                 : YUV
Chroma subsampling          : 4:2:0
Bit depth                   : 8 bits
Scan type                   : Progressive
Bits/(Pixel*Frame)          : 0.268
Stream size                 : 7.31 GiB (94%)
Title                       : Sissi - Die junge Kaiserin (1956)-alE13
Writing library             : x264 core 142
Default                     : Yes
Forced                      : No
Color range                 : Limited
Color primaries             : BT.709
Transfer characteristics    : BT.709
Matrix coefficients         : BT.709

Audio #1
ID                          : 2
Format                      : AC-3
Format/Info                 : Audio Coding 3
Mode extension              : CM (complete main)
Format settings, Endianness : Big
Codec ID                    : A_AC3
Duration                    : 1 h 45 min
Bit rate mode               : Constant
Bit rate                    : 384 kb/s
Channel(s)                  : 2 channels
Channel positions           : Front: L R
Sampling rate               : 48.0 kHz
Frame rate                  : 31.250 FPS (1536 spf)
Compression mode            : Lossy
Stream size                 : 289 MiB (4%)
Title                       : Sissi - Die junge Kaiserin (1956)-alE13_AC3
Language                    : German
Default                     : No
Forced                      : No

Audio #2
ID                          : 3
Format                      : AC-3
Format/Info                 : Audio Coding 3
Mode extension              : CM (complete main)
Format settings, Endianness : Big
Codec ID                    : A_AC3
Duration                    : 1 h 45 min
Bit rate mode               : Constant
Bit rate                    : 256 kb/s
Channel(s)                  : 2 channels
Channel positions           : Front: L R
Sampling rate               : 44.1 kHz
Frame rate                  : 28.711 FPS (1536 spf)
Compression mode            : Lossy
Delay relative to video     : 350 ms
Stream size                 : 194 MiB (2%)
Title                       : Sissi - Die junge Kaiserin (1956)-alE13
Language                    : Polish
Default                     : Yes
Forced                      : No

Text #1
ID                          : 4
Format                      : UTF-8
Codec ID                    : S_TEXT/UTF8
Codec ID/Info               : UTF-8 Plain Text
Duration                    : 1 h 41 min
Bit rate                    : 58 b/s
Count of elements           : 1079
Stream size                 : 43.1 KiB (0%)
Title                       : Sissi - Die junge Kaiserin (1956)-alE13
Language                    : Polish
Default                     : No
Forced                      : No

Text #2
ID                          : 5
Format                      : UTF-8
Codec ID                    : S_TEXT/UTF8
Codec ID/Info               : UTF-8 Plain Text
Duration                    : 1 h 41 min
Bit rate                    : 55 b/s
Count of elements           : 1082
Stream size                 : 41.0 KiB (0%)
Title                       : Sissi - Die junge Kaiserin (1956)-alE13
Language                    : English
Default                     : No
Forced                      : No

Text #3
ID                          : 6
Format                      : UTF-8
Codec ID                    : S_TEXT/UTF8
Codec ID/Info               : UTF-8 Plain Text
Duration                    : 1 h 41 min
Bit rate                    : 74 b/s
Count of elements           : 1104
Stream size                 : 55.4 KiB (0%)
Title                       : Sissi - Die junge Kaiserin (1956)-alE13
Language                    : German
Default                     : No
Forced                      : No

Menu
00:00:00.000                : en:(01)00:00:00:000
00:07:34.203                : en:(02)00:07:34:203
00:16:08.884                : en:(03)00:16:08:884
00:26:39.597                : en:(04)00:26:39:597
00:37:21.447                : en:(05)00:37:21:447
00:41:56.722                : en:(06)00:41:56:722
00:51:02.267                : en:(07)00:51:02:267
00:59:04.415                : en:(08)00:59:04:415
01:08:31.982                : en:(09)01:08:31:982
01:15:51.546                : en:(10)01:15:51:546
01:21:13.493                : en:(11)01:21:13:493
01:33:43.826                : en:(12)01:33:43:826
01:45:44.337                : en:(13)01:45:44:337
Podobne torrenty
[HDTV-HD] Sissi-Losy Cesarzowej-Sissi-Schicksalsjahre einer Kaiserin (1957)[BRRip 1080p x264 by alE13 AC3/DTS][Lektor i Napisy PL/Eng/Ger][Ger]
[RMVB] Sissi: losy cesarzowej - Sissi: Schicksalsjahre einer Kaiserin *1957* [DVDRip.RMVB] [Lektor PL]
[HDTV-HD] Sissi (1955)[BRRip 1080p x264 by alE13 AC3/DTS][Lektor i Napisy PL/Eng/Ger][Ger]
[HDTV-HD] Młoda czarownica-Teen Witch (1989)[BRRip 1080p x264 by alE13 AC3/FLAC][Lektor i Napisy PL/Eng][Eng]
[DivX - XviD] Sissi - Trilogy *1955-1957* [DVDRip] [Napisy PL]
[DivX - XviD] Sissi (1955) [DVDRip] [Lektor PL]
[HDTV-HD] Szybcy i wściekli 8-The Fate of the Furious (2017)-alE13[BRRip 1080p x264 by alE13 AC3/DTS]Napisy PL/Eng][Eng]
[HDTV-HD] Coś-The Thing (1982)[BRRip 1080p x264 by alE13 AC3][Lektor i Napisy PL/Eng][Eng]
[HDTV-HD] Gladiator(2000)[BRRip 1080p x264 by alE13 AC3][Lektor i Napisy PL/Eng][Eng]
[HDTV-HD] Centurion (2010)[BRRip 1080p x264 by alE13 DTS/AC3][Lektor i Napisy PL/Eng][Eng]
Szczegóły torrenta
Trackerhttp://tracker.torrentyorg.pl/announce
Multitracker http://tracker.torrentyorg.pl/announce
udp://tracker.opentrackr.org:1337/announce
udp://tracker.leechers-paradise.org:6969/announce
udp://tracker.ilibr.org:80/announce
udp://tracker.coppersurfer.tk:6969/announce
udp://p4p.arenabg.ch:1337/announce
udp://inferno.demonoid.pw:3391/announce

Kategoria:Filmy » HDTV-HD
Dodane13/05/2017 06:05:14
Ostatnie Uaktualnienie13/05/2017 06:27:14
Pokaż/Ukryj pliki:
18 plików
NIKT JESZCZE NIE DODAŁ KOMENTARZA

DODAJ KOMENTARZ
Więcej Emoticon



Wstecz

Żaden z opisanych na stronie plików nie jest przetrzymywany na serwerze. Administrator strony immortaltorrent.pl nie może ponieść konsekwencji prawnych za to co użytkownicy zamieszczają lub piszą na stronie.
Nie możesz używać tego serwisu do rozpowszechniania lub ściągania materiałów do których nie masz odpowiednich praw lub licencji. Użytkownicy zobowiązani są do przestrzeganie tych zasad.
Rejestracja konta jest jednoznaczna z akceptacją zasad.

2017 © immortaltorrent.pl


Najlepsze strony Torrentowe