Torrentów: 138623      Ranga: Gość               Stwórz konto Odzyskiwanie hasła


Kategorie
Filmy
 ⇒ DivX - XviD
 ⇒ RMVB
 ⇒ DVD-R
 ⇒ TV + Seriale
 ⇒ HDTV-HD
 ⇒ VCD - SVCD
 ⇒ x 264
 ⇒  3D
Gry
 ⇒ Gry PC
 ⇒ Gry Konsole
 ⇒ xbox360
Muzyka
 ⇒ Muzyka
 ⇒ Teledyski/Koncerty
Książki - Komiksy
 ⇒ E-Booki + Audio
 ⇒ Komiksy
Inne
 ⇒ XXX
 ⇒ Dla Dzieci
 ⇒ Sport
 ⇒ Pozostałe - Różne
 ⇒ Manga - Anime
 ⇒ GSM - PDA
Aplikacje
 ⇒ Windows
 ⇒ Linux + Macintosh



Detale torrenta

Rok Smoka-Year of the Dragon 1985)[BRRip 1080p x264 by alE13 AC3/DTS][Lektor i Napisy PL/Eng][Eng]
Kondycja:
Dodane: 04/08/2017
Rozmiar: 9.35 GB
Uploader: alE13

seed(ów): 1
leecher(ów): 0
Pobrane: 0





Ocena: N/A



http://www.imdb.com/title/tt0090350/
http://www.filmweb.pl/film/Rok+smoka-1985-9208

Audio DTS w osobnym pliku.
Plik zawiera Sample.


reżyseria: Michael Cimino
scenariusz: Oliver Stone,Michael Cimino
gatunek: Dramat,Kryminał,Sensacyjny
produkcja: USA
premiera: 16-08-1985
muzyka:         David Mansfield
zdjęcia:        Alex Thomson
czas:           2h 14min

opis:

A police detective cracks down on organized crime in Chinatown after the murders of Triad and Mafia leaders.

Używając niesłychanych metod przemocy, młody Joey Tai zostaje głową chińskiej mafii w Nowym Jorku i niezaprzeczalnym
liderem w chińskim środowisku. Stanley White, najbardziej odznaczony gliniarz w Noym Jorku, nienawidzący Azjatów od
czasów służby w Wietnamie, ma objąć policyjny nadzór nad Chinatown. Oboje są nastawieni na łamanie zasad i nie chcą
pójść na kompromis, co wiedzie do krawego konfliktu.






obsada:

Mickey Rourke, John Lone, Ariane

dane techniczne:

Year of the Dragon 1985)-alE13.mkv
Format                      : Matroska
Format version              : Version 4 / Version 2
File size                   : 7.93 GiB
Duration                    : 2 h 14 min
Overall bit rate            : 8 445 kb/s
Movie name                  : Year of the Dragon 1985)-alE13
Encoded date                : UTC 2017-08-04 15:45:29
Writing application         : mkvmerge v8.1.0 ('Psychedelic Postcard') 64bit
Writing library             : libebml v1.3.1 + libmatroska v1.4.2
Cover                       : Yes
Attachments                 : Cover.jpg

Video
ID                          : 1
Format                      : AVC
Format/Info                 : Advanced Video Codec
Format profile              : High@L4.1
Format settings, CABAC      : Yes
Format settings, RefFrames  : 2 frames
Format settings, GOP        : M=3, N=24
Codec ID                    : V_MPEG4/ISO/AVC
Duration                    : 2 h 14 min
Bit rate                    : 7 739 kb/s
Width                       : 1 920 pixels
Height                      : 816 pixels
Display aspect ratio        : 2.35:1
Frame rate mode             : Constant
Frame rate                  : 23.976 (24000/1001) FPS
Color space                 : YUV
Chroma subsampling          : 4:2:0
Bit depth                   : 8 bits
Scan type                   : Progressive
Bits/(Pixel*Frame)          : 0.206
Stream size                 : 7.27 GiB (92%)
Title                       : Year of the Dragon 1985)-alE13
Writing library             : x264 core 142
Default                     : Yes
Forced                      : No
Color range                 : Limited
Color primaries             : BT.709
Transfer characteristics    : BT.709
Matrix coefficients         : BT.709

Audio #1
ID                          : 2
Format                      : AC-3
Format/Info                 : Audio Coding 3
Format settings, Endianness : Big
Codec ID                    : A_AC3
Duration                    : 2 h 14 min
Bit rate mode               : Constant
Bit rate                    : 448 kb/s
Channel(s)                  : 6 channels
Channel positions           : Front: L C R, Side: L R, LFE
Sampling rate               : 48.0 kHz
Frame rate                  : 31.250 FPS (1536 SPF)
Bit depth                   : 16 bits
Compression mode            : Lossy
Stream size                 : 431 MiB (5%)
Title                       : Year of the Dragon 1985)-alE13_AC3
Language                    : English
Service kind                : Complete Main
Default                     : No
Forced                      : No

Audio #2
ID                          : 3
Format                      : AC-3
Format/Info                 : Audio Coding 3
Format settings, Endianness : Big
Codec ID                    : A_AC3
Duration                    : 2 h 14 min
Bit rate mode               : Constant
Bit rate                    : 256 kb/s
Channel(s)                  : 2 channels
Channel positions           : Front: L R
Sampling rate               : 48.0 kHz
Frame rate                  : 31.250 FPS (1536 SPF)
Bit depth                   : 16 bits
Compression mode            : Lossy
Delay relative to video     : 8 s 0 ms
Stream size                 : 246 MiB (3%)
Title                       : Year of the Dragon 1985)-alE13_AC3
Language                    : Polish
Service kind                : Complete Main
Default                     : Yes
Forced                      : No

Menu
00:00:00.000                : en:00:00:00.000
00:02:07.127                : en:00:02:07.127
00:10:49.023                : en:00:10:49.023
00:19:53.359                : en:00:19:53.359
00:24:33.472                : en:00:24:33.472
00:33:17.954                : en:00:33:17.954
00:37:05.056                : en:00:37:05.056
00:47:18.419                : en:00:47:18.419
00:54:33.520                : en:00:54:33.520
01:00:16.738                : en:01:00:16.738
01:15:03.332                : en:01:15:03.332
01:20:17.979                : en:01:20:17.980
01:22:31.374                : en:01:22:31.363
01:27:47.899                : en:01:27:47.888
01:35:30.444                : en:01:35:30.433
01:41:39.521                : en:01:41:39.510
01:47:19.069                : en:01:47:19.058
01:55:18.339                : en:01:55:18.328
02:03:19.778                : en:02:03:19.767
02:10:28.373                : en:02:10:28.362
Podobne torrenty
[HDTV-HD] Narodziny Smoka-Birth of the Dragon (2016)[WEBRip 1080p x264 by alE13 AC3][Napisy PL/Eng][Eng/Rus]
[HDTV-HD] Lotnik-The Aviator (1985)[BRRip 1080p x264 by alE13 AC3/DTS][Lektor i Napisy PL/Eng][Eng]
[HDTV-HD] Skowyt 2-Howling II Stirba:... Werewolf Bitch (1985)[BRRip 1080p by alE13 AC3][Lektor i Napisy Eng][Eng]
[HDTV-HD] Miasto Aniołów-City of Angels (1998)-alE13[BRRip 1080p x264 by alE13 AC3/DTS][Lektor i Napisy PL/Eng][Eng]
[HDTV-HD] Barwy Nocy-Color of night (Director\'s Cut) (1994)-alE13[BRRip 1080p x264 by alE13 AC3][Lektor i Napisy PL/Eng][Eng]
[HDTV-HD] Szybcy i wściekli 8-The Fate of the Furious (2017)-alE13[BRRip 1080p x264 by alE13 AC3/DTS]Napisy PL/Eng][Eng]
[HDTV-HD] Bez wyjścia-No Way Out (1987)[BRRip 1080p x264 by alE13 AC3][Lektor i Napisy PL/Eng][Eng]
[HDTV-HD] Coś-The Thing (1982)[BRRip 1080p x264 by alE13 AC3][Lektor i Napisy PL/Eng][Eng]
[HDTV-HD] Gladiator(2000)[BRRip 1080p x264 by alE13 AC3][Lektor i Napisy PL/Eng][Eng]
[HDTV-HD] Centurion (2010)[BRRip 1080p x264 by alE13 DTS/AC3][Lektor i Napisy PL/Eng][Eng]
Szczegóły torrenta
Trackerhttp://tracker.devil-torrents.pl/announce
Multitracker http://tracker.devil-torrents.pl/announce
http://tracker.torrentyorg.pl/announce
udp://tracker.opentrackr.org:1337/announce
udp://tracker.leechers-paradise.org:6969/announce
udp://tracker.ilibr.org:80/announce
udp://tracker.coppersurfer.tk:6969/announce
udp://p4p.arenabg.ch:1337/announce
udp://inferno.demonoid.pw:3391/announce

Kategoria:Filmy » HDTV-HD
Dodane04/08/2017 18:08:25
Ostatnie Uaktualnienie04/08/2017 18:57:25
Pokaż/Ukryj pliki:
15 plików
NIKT JESZCZE NIE DODAŁ KOMENTARZA

DODAJ KOMENTARZ
Więcej Emoticon



Wstecz

Żaden z opisanych na stronie plików nie jest przetrzymywany na serwerze. Administrator strony immortaltorrent.pl nie może ponieść konsekwencji prawnych za to co użytkownicy zamieszczają lub piszą na stronie.
Nie możesz używać tego serwisu do rozpowszechniania lub ściągania materiałów do których nie masz odpowiednich praw lub licencji. Użytkownicy zobowiązani są do przestrzeganie tych zasad.
Rejestracja konta jest jednoznaczna z akceptacją zasad.

2017 © immortaltorrent.pl


Najlepsze strony Torrentowe