Torrentów: 156428      Ranga: Gosc               Stwórz konto Odzyskiwanie hasła


Kategorie
Filmy
 ⇒ DivX - XviD
 ⇒ RMVB
 ⇒ DVD-R
 ⇒ TV + Seriale
 ⇒ HDTV-HD
 ⇒ VCD - SVCD
 ⇒ x 264
 ⇒  3D
Gry
 ⇒ Gry PC
 ⇒ Gry Konsole
 ⇒ xbox360
Muzyka
 ⇒ Muzyka
 ⇒ Teledyski/Koncerty
Książki - Komiksy
 ⇒ E-Booki + Audio
 ⇒ Komiksy
Inne
 ⇒ XXX
 ⇒ Dla Dzieci
 ⇒ Sport
 ⇒ Pozostałe - Różne
 ⇒ Manga - Anime
 ⇒ GSM - PDA
Aplikacje
 ⇒ Windows
 ⇒ Linux + Macintosh



Detale torrenta

Na drodze do szczê¶cia - The Open Road *2009* [DVDRiP] [XViD] [Lektor PL]
Kondycja:
Dodane: 23/02/2011
Rozmiar: 699.67 MB
Uploader: Anonimowy
seed(ów): 1
leecher(ów): 0
Pobrane: 1260





Ocena: N/A



Produkcja: USA
Gatunek: Dramat, Komedia
Re¿yseria: Michael Meredith
Scenariusz: Michael Meredith
Premiera: 28 sierpnia 2009 (¦wiat) 2009-08-28



Carlton Garrett (Justin Timberlake) jest synem legendarnego baseballisty, Kylea Garretta (Jeff Bridges). Pewnego razu Carlton i jego dziewczyna Lucy ruszaj± na pro¶bê chorej matki w podró¿, by odnale¼æ ojca ch³opaka.



Justin Timberlake
Allen Battle
Tamera Bennett
Jeff Bridges
LaVita Brooks
Paxton Brown



Format                           : AVI
Format/Info                      : Audio Video Interleave
File size                        : 700 MiB
Duration                         : 1h 26mn
Overall bit rate                 : 1 128 Kbps
Writing application              : VirtualDubMod 1.5.10.2 (build 2540/release)
Writing library                  : VirtualDubMod build 2540/release

Video
ID                               : 0
Format                           : MPEG-4 Visual
Format profile                   : Advanced Simple@L5
Format settings, BVOP            : 2
Format settings, QPel            : No
Format settings, GMC             : No warppoints
Format settings, Matrix          : Default (H.263)
Codec ID                         : XVID
Codec ID/Hint                    : XviD
Duration                         : 1h 26mn
Bit rate                         : 993 Kbps
Width                            : 640 pixels
Height                           : 352 pixels
Display aspect ratio             : 16:9
Frame rate                       : 25.000 fps
Color space                      : YUV
Chroma subsampling               : 4:2:0
Bit depth                        : 8 bits
Scan type                        : Progressive
Compression mode                 : Lossy
Bits/(Pixel*Frame)               : 0.176
Stream size                      : 616 MiB (88%)
Writing library                  : XviD 1.2.1 (U*censored* 2008-12-04)

Audio
ID                               : 1
Format                           : MPEG Audio
Format version                   : Version 1
Format profile                   : Layer 3
Mode                             : Joint stereo
Mode extension                   : MS Stereo
Codec ID                         : 55
Codec ID/Hint                    : MP3
Duration                         : 1h 26mn
Bit rate mode                    : Variable
Bit rate                         : 128 Kbps
Channel(s)                       : 2 channels
Sampling rate                    : 48.0 KHz
Compression mode                 : Lossy
Stream size                      : 76.0 MiB (11%)
Alignment                        : Aligned on interleaves
Interleave, duration             : 24 ms (0.60 video frame)
Interleave, preload duration     : 498 ms
Writing library                  : LAME3.98r
Encoding settings                : -m j -V 4 -q 3 -lowpass 17 --abr 128
Podobne torrenty
[RMVB] Na Drodze Do Szczê¶cia - The Open Road *2009* [DVDRip.RMVB] [Lektor PL]
[DivX - XviD] Mad Max:Na drodze gniewu - Mad Max:Fury Road *2015* [DVDRip] [XviD-NN] [Lektor PL]
[DivX - XviD] W drodze - On the Road *2012* [DVDRip.XviD] [Napisy PL]
[DivX - XviD] W drodze / On The Road (2012) [BRRip.XviD] [ENG] [Lektor PL]
[DivX - XviD] W drodze - On The Road (2012) [BRRip] [XviD-BiDA] [Lektor PL]
[DivX - XviD] W Drodze - On The Road *2012* [480p] [BRRip] [XviD] [AC3] [Lektor PL]
[DivX - XviD] Mad Max: Na drodze gniewu / Mad Max: Fury Road (2015) [BDRip] [Xvid-KiT] [Lektor PL]
[DivX - XviD] Na mlecznej drodze - On the Milky Road (2016) [480p] [XviD] [AC3-KLiO] [Lektor PL] [H1]
[DivX - XviD] Tarantella w drodze - Taranta on the Road (2017) [480p] [HDTV] [XViD] [AC3-H1] [Lektor PL]
[DVD-R] W drodze - On The Road (2012) [PAL] [DVD5] [Lektor i Napisy PL]
Szczegóły torrenta
Trackerhttp://tracker.torrenty.org:6969/announce
Kategoria:Filmy » DivX - XviD
Dodane23/02/2011 18:02:10
Ostatnie Uaktualnienie23/07/2013 10:00:37
NIKT JESZCZE NIE DODAŁ KOMENTARZA

DODAJ KOMENTARZ
Więcej Emoticon



Wstecz

Żaden z opisanych na stronie plików nie jest przetrzymywany na serwerze. Administrator strony immortaltorrent.pl nie może ponieść konsekwencji prawnych za to co użytkownicy zamieszczają lub piszą na stronie.
Nie możesz używać tego serwisu do rozpowszechniania lub ściągania materiałów do których nie masz odpowiednich praw lub licencji. Użytkownicy zobowiązani są do przestrzeganie tych zasad.
Rejestracja konta jest jednoznaczna z akceptacją zasad.

2020 © immortaltorrent.pl


Najlepsze strony Torrentowe