Torrentów: 135458      Ranga: Gość               Stwórz konto Odzyskiwanie hasła


Kategorie
Filmy
 ⇒ DivX - XviD
 ⇒ RMVB
 ⇒ DVD-R
 ⇒ TV + Seriale
 ⇒ HDTV-HD
 ⇒ VCD - SVCD
 ⇒ x 264
 ⇒  3D
Gry
 ⇒ Gry PC
 ⇒ Gry Konsole
 ⇒ xbox360
Muzyka
 ⇒ Muzyka
 ⇒ Teledyski/Koncerty
Książki - Komiksy
 ⇒ E-Booki + Audio
 ⇒ Komiksy
Inne
 ⇒ XXX
 ⇒ Dla Dzieci
 ⇒ Sport
 ⇒ Pozostałe - Różne
 ⇒ Manga - Anime
 ⇒ GSM - PDA
Aplikacje
 ⇒ Windows
 ⇒ Linux + Macintosh



Detale torrenta

Rozbieracze, Biznes w garażu - Strippers Cars For Cash - SE01E02 [TVRip] [XviD-torentup] [Lektor PL]
Kondycja:
Dodane: 06/10/2015
Rozmiar: 366.62 MB
Uploader: torentup

seed(ów): 2
leecher(ów): 3
Pobrane: 1





Ocena: N/A


Gatunek: Programy motoryzacyjne
Kraj produkcji: Wielka Brytania
Produkcyjna: National Geographic Channel
Emisja: National Geographic Channel
Premiera: 2012
Liczba epizodów: 10
Czas trwania odcinka: 45 minut

Zdobywający coraz większą rzeszę fanów angielski program motoryzacyjny emitowany przez National Geographic Channel. Mechanik Ben Szymanski i handlarz Frankie Oatway będą walczyć z konkurentami Georgem Percym i Sheldonem Nicholsem w wyścigu – kto zarobi więcej kupując stare samochody i sprzedając je na części. Mechanicy Ben i George zajęli się szybką rozbiórką aut, a super-sprzedawcy Frankie i Sheldon zadbali by efekt pracy rozbieraczy przełożył się na spore zyski. W każdym odcinku konkurujące ze sobą pary szukać będą aut idealnie nadających się do rozbiórki. Każdy z mechaników ma tylko trzy dni na demontaż samochodu starając się wyciągnąć z niego najlepsze i najwartościowsze części. Kiedy samochody zostają rozłożone zaczyna się gorączkowe poszukiwanie potencjalnych klientów. Przypominający londyńskiego gangstera Frankie od razu myśli o przyciśnięciu klienta i satysfakcjonującej go wysokiej cenie, a pozujący na eleganckiego dżentelmena Sheldon najpierw próbuje odprawić na kupującym swoje motoryzacyjne czary. Regulaminowe trzy dni na poszukiwania samochodu, jego demontaż i sprzedaż części mijają bardzo szybko, a decydującym momentem bywa końcowe złomowanie wraka i ostatni już zysk, jaki dzięki temu osiągają. W odcinku "brytyjskie legendy" Sheldonea Nicholsa zastąpił Dean Williams.

Odcinki:

1. Japońskie wyścigówki - Subaru Impreza i Mitsubishi Lancer Evolution
2. Popularne hatchbacki - VW Golf GTI 16V i Ford Escort XR3i Cabrio
3. Legendy motoryzacji - Porsche 944 i Alfa Romeo GTV
4. Samochód gangstera - Jaguar XJR i Audi A8
5. Amerykańskie Muscle Cars - Ford Thunderbird i Chevrolet Corvette
6. Maluchy - Nowe Mini i Stare Mini
7. Terenówki - Land Rover 90 i Mitsubishi Pajero
8. Małe i sportowe - MGB GT i Mazda MX-5
9. Weekendowi wojownicy - VW Camper i VW Garbus
10. Brytyjskie legendy - Jaguar XJ6 i Rolls-Royce Silver Shadow


Dane techniczne dla przykładowego odcinka s01e01

Format                         : AVI
Format/Info                    : Audio Video Interleave
File size                      : 367 MiB
Duration                       : 44mn 59s
Overall bit rate               : 1 139 Kbps
Writing application            : Lavf53.5.0
Comment                        : ALLConverter.org

Video
ID                             : 0
Format                         : MPEG-4 Visual
Format profile                 : Simple@L1
Format settings, BVOP          : No
Format settings, QPel          : No
Format settings, GMC           : No warppoints
Format settings, Matrix        : Default (H.263)
Codec ID                       : FMP4
Duration                       : 44mn 59s
Bit rate                       : 1 001 Kbps
Width                          : 540 pixels
Height                         : 360 pixels
Display aspect ratio           : 3:2
Frame rate                     : 25.000 fps
Color space                    : YUV
Chroma subsampling             : 4:2:0
Bit depth                      : 8 bits
Scan type                      : Progressive
Compression mode               : Lossy
Bits/(Pixel*Frame)             : 0.206
Stream size                    : 322 MiB (88%)
Writing library                : Lavc53.8.0

Audio
ID                             : 1
Format                         : AC-3
Format/Info                    : Audio Coding 3
Mode extension                 : CM (complete main)
Format settings, Endianness    : Big
Codec ID                       : 2000
Duration                       : 44mn 59s
Bit rate mode                  : Constant
Bit rate                       : 128 Kbps
Channel(s)                     : 2 channels
Channel positions              : Front: L R
Sampling rate                  : 44.1 KHz
Bit depth                      : 16 bits
Compression mode               : Lossy
Stream size                    : 41.2 MiB (11%)
Alignment                      : Aligned on interleaves
Interleave, duration           : 35 ms (0.87 video frame)
Podobne torrenty
[DivX - XviD] Tango i Cash -Tango & Cash *1989* [TVRip] [Lektor PL]
[DivX - XviD] Szybki cash - Snabba Cash *2010* [BRRip.XviD] [Lektor PL]
[RMVB] Tango i Cash - Tango & Cash *1989* [DVDRip.RMVB] [Lektor PL]
[DivX - XviD] Wojenny Biznes - War Inc (2008) [DVDRip.XviD] [Lektor PL]
[RMVB] Zombie Strippers *2008* [DVDRip.XviD] [Lektor PL]
[DivX - XviD] Krwawy biznes - Pound of Flesh (2015) [WEBRip] [XviD-KiT][Lektor PL]
[DivX - XviD] Krwawy biznes - Pound of Flesh 2015 [WEBRip.XviD-KiT] [Lektor PL]
[DivX - XviD] Krwawy biznes - Pound of Flesh *2015* [DVDRip] [XviD-NN] [Lektor PL]
[DivX - XviD] Krwawy biznes - Pound of Flesh (2015) [DVDRip] [XviD] [AC-3] [Lektor PL] [H1]
[Muzyka] Johnny Cash & June Carter Cash [mp3]
Szczegóły torrenta
Trackerhttp://tracker.filetracker.pl:8089/announce
Multitracker http://tracker.filetracker.pl:8089/announce
http://tracker.free-torrents.pl/announce
http://tracker.streettorrent.pl:80/announce
http://tracker.torrenty.org:6969/announce
http://tracker.aletorrenty.pl:2710/announce
http://tracker.pubt.net:2710/announce
http://94.228.192.98/announce
http://www.tlv.cc:7777/announce
http://tracker.torrenty.org:6969/announce
http://retracker.omsk.ru:2710/announce
http://tracker.immortaltorrent.pl/announce
udp://open.demonii.com:1337/announce
http://tracker.best-torrents.net:6969/announce
udp://torrent.gresille.org:80/announce
udp://9.rarbg.me:2710/announce
udp://eddie4.nl:6969/announce
udp://tracker.leechers-paradise.org:6969/announce
udp://tracker4.piratux.com:6969/announce
udp://www.eddie4.nl:6969/announce
udp://open.demonii.com:1337/announce
udp://tracker.openbittorrent.com:80/announce
udp://tracker.publicbt.com:80/announce
udp://ipv4.tracker.harry.lu:80/announce
udp://tracker.publicbt.com/announce
udp://shadowshq.eddie4.nl:6969/announce
udp://9.rarbg.com:2710/announce
udp://11.rarbg.com:80/announce
udp://10.rarbg.com/announce
udp://tracker.istole.it:80/announce
udp://exodus.desync.com:6969
udp://open.demonii.com:1337/announce
udp://tracker.prq.to/announce

Kategoria:Filmy » TV + Seriale
Dodane06/10/2015 23:10:25
Ostatnie Uaktualnienie07/10/2015 15:57:58
Pokaż/Ukryj pliki:
5 plików
NIKT JESZCZE NIE DODAŁ KOMENTARZA

DODAJ KOMENTARZ
Więcej Emoticon



Wstecz

Żaden z opisanych na stronie plików nie jest przetrzymywany na serwerze. Administrator strony immortaltorrent.pl nie może ponieść konsekwencji prawnych za to co użytkownicy zamieszczają lub piszą na stronie.
Nie możesz używać tego serwisu do rozpowszechniania lub ściągania materiałów do których nie masz odpowiednich praw lub licencji. Użytkownicy zobowiązani są do przestrzeganie tych zasad.
Rejestracja konta jest jednoznaczna z akceptacją zasad.

2017 © immortaltorrent.pl


Najlepsze strony Torrentowe