Torrentów: 134556      Ranga: Gość               Stwórz konto Odzyskiwanie hasła


Kategorie
Filmy
 ⇒ DivX - XviD
 ⇒ RMVB
 ⇒ DVD-R
 ⇒ TV + Seriale
 ⇒ HDTV-HD
 ⇒ VCD - SVCD
 ⇒ x 264
 ⇒  3D
Gry
 ⇒ Gry PC
 ⇒ Gry Konsole
 ⇒ xbox360
Muzyka
 ⇒ Muzyka
 ⇒ Teledyski/Koncerty
Książki - Komiksy
 ⇒ E-Booki + Audio
 ⇒ Komiksy
Inne
 ⇒ XXX
 ⇒ Dla Dzieci
 ⇒ Sport
 ⇒ Pozostałe - Różne
 ⇒ Manga - Anime
 ⇒ GSM - PDA
Aplikacje
 ⇒ Windows
 ⇒ Linux + Macintosh



Detale torrenta

Tysiąc słów - A Thousand Words *2012* [DVDRip] [XviD-torentup] [Lektor PL]
Kondycja:
Dodane: 22/10/2015
Rozmiar: 693.54 MB
Uploader: torentup

seed(ów): 15
leecher(ów): 18
Pobrane: 40





Ocena: N/A

INFO

czas trwania: 1 godz. 31 min.
gatunek:Dramat, Komedia
premiera: 23 marca 2012 (świat)
produkcja: USA
reżyseria: Brian Robbins
scenariusz: Steve Koren

OPIS

Fantastyczna, wzruszająca historia o mężczyźnie, który uczy się w pełni doceniać wagę swoich słów i mówić to, co rzeczywiście myśli. Milczenie jest złotem, zaś dla bohatera film "1000 słów" milczenie jest życiem. Bohater dowiaduje się, że zostało mu tylko tysiąc słów do śmierci. Z każdym wypowiedzianym słowem skraca się żywot śmiertelnika. Jest to dla niego nie lada przeżycie i wyzwanie, tym bardziej, że nie należy do osób małomównych.

O FILMIE

http://www.filmweb.pl/film/Tysi%C4%85c+s%C5%82%C3%B3w-2012-474262

OBSADA

Eddie Murphy - Jack McCall
Kerry Washington - Caroline McCall
Cliff Curtis - Dr Sinja
Clark Duke - Aaron Wiseberger
Allison Janney - Samantha Davis
Matt Winston - Nauczyciel astronomi
Darcy Rose Byrnes - Dziesięcioletnia dziewczynka
Kayla Blake - Emily
Eshaya Draper - Młody Jack
Landon Ashworth - Współpracownik

DANE TECHNICZNE :

Format                         : AVI
Format/Info                    : Audio Video Interleave
File size                      : 693 MiB
Duration                       : 1h 27mn
Overall bit rate               : 1 105 Kbps
Writing application            : VirtualDubMod 1.5.10.2 (build 2540/release)
Writing library                : VirtualDubMod build 2540/release

Video
ID                             : 0
Format                         : MPEG-4 Visual
Format profile                 : Advanced Simple@L5
Format settings, BVOP          : Yes
Format settings, QPel          : No
Format settings, GMC           : No warppoints
Format settings, Matrix        : Default (MPEG)
Codec ID                       : XVID
Codec ID/Hint                  : XviD
Duration                       : 1h 27mn
Bit rate                       : 967 Kbps
Width                          : 640 pixels
Height                         : 272 pixels
Display aspect ratio           : 2.35:1
Frame rate                     : 25.000 fps
Original frame rate            : 23.976 fps
Color space                    : YUV
Chroma subsampling             : 4:2:0
Bit depth                      : 8 bits
Scan type                      : Progressive
Compression mode               : Lossy
Bits/(Pixel*Frame)             : 0.222
Stream size                    : 607 MiB (88%)
Writing library                : XviD 64

Audio
ID                             : 1
Format                         : MPEG Audio
Format version                 : Version 1
Format profile                 : Layer 3
Mode                           : Joint stereo
Mode extension                 : MS Stereo
Codec ID                       : 55
Codec ID/Hint                  : MP3
Duration                       : 1h 27mn
Bit rate mode                  : Constant
Bit rate                       : 128 Kbps
Channel(s)                     : 2 channels
Sampling rate                  : 48.0 KHz
Compression mode               : Lossy
Stream size                    : 80.3 MiB (12%)
Alignment                      : Aligned on interleaves
Interleave, duration           : 40 ms (1.00 video frame)
Interleave, preload duration   : 504 ms
Writing library                : LAME3.99r
Encoding settings              : -m j -V 4 -q 2 -lowpass 17 -b 128

Podobne torrenty
[DivX - XviD] Tysiąc słów - A Thousand Words *2012* [DVDRip.XviD] [Lektor PL]
[DivX - XviD] Tysiąc słów - A Thousand Words *2012* [DVDRip.XviD] [Lektor PL]
[RMVB] Tysiąc słów - A Thousand Words *2012* [DVDRip.RMVB [Lektor PL]
[DVD-R] Tysiąc słów - A Thousand Words (2012) [DVD5] [Lektor i Napisy PL]
[DivX - XviD] Tysiac Slow - A Thousand Words *2012* [DVDRip] [XViD] [Lektor PL]
[DivX - XviD] Tysiąc razy silniejsza - A Thousand Times Stronger *2010* [DVDRip.XviD-J25] [Lektor PL]
[Muzyka] Styrofoam-A Thousand Words[Advance][2008][mp3@200]
[DivX - XviD] Wyborcze jaja - The Campaign 2012 [AC3] [DVDRip] [XviD-torentup] [Lektor PL]
[Dla Dzieci] Baśń z tysiąc drugiej nocy - Lippels Dream *2009* [DVDRiP.XViD] [Lektor PL]
[DivX - XviD] The Words *2012* [BRRip.XviD] [Napisy PL]
Szczegóły torrenta
Trackerhttp://tracker.filetracker.pl:8089/announce
Multitracker http://tracker.filetracker.pl:8089/announce
http://tracker.free-torrents.pl/announce
http://tracker.streettorrent.pl:80/announce
http://tracker.torrenty.org:6969/announce
http://tracker.aletorrenty.pl:2710/announce
http://tracker.pubt.net:2710/announce
http://94.228.192.98/announce
http://www.tlv.cc:7777/announce
http://tracker.torrenty.org:6969/announce
http://retracker.omsk.ru:2710/announce
http://tracker.immortaltorrent.pl/announce
udp://open.demonii.com:1337/announce
http://tracker.best-torrents.net:6969/announce
udp://torrent.gresille.org:80/announce
udp://9.rarbg.me:2710/announce
udp://eddie4.nl:6969/announce
udp://tracker.leechers-paradise.org:6969/announce
udp://tracker4.piratux.com:6969/announce
udp://www.eddie4.nl:6969/announce
udp://open.demonii.com:1337/announce
udp://tracker.openbittorrent.com:80/announce
udp://tracker.publicbt.com:80/announce
udp://ipv4.tracker.harry.lu:80/announce
udp://tracker.publicbt.com/announce
udp://shadowshq.eddie4.nl:6969/announce
udp://9.rarbg.com:2710/announce
udp://11.rarbg.com:80/announce
udp://10.rarbg.com/announce
udp://tracker.istole.it:80/announce
udp://exodus.desync.com:6969
udp://open.demonii.com:1337/announce
udp://tracker.prq.to/announce

Kategoria:Filmy » DivX - XviD
Dodane22/10/2015 19:10:42
Ostatnie Uaktualnienie23/10/2015 13:27:01
Pokaż/Ukryj pliki:
5 plików
NIKT JESZCZE NIE DODAŁ KOMENTARZA

DODAJ KOMENTARZ
Więcej Emoticon



Wstecz

Żaden z opisanych na stronie plików nie jest przetrzymywany na serwerze. Administrator strony immortaltorrent.pl nie może ponieść konsekwencji prawnych za to co użytkownicy zamieszczają lub piszą na stronie.
Nie możesz używać tego serwisu do rozpowszechniania lub ściągania materiałów do których nie masz odpowiednich praw lub licencji. Użytkownicy zobowiązani są do przestrzeganie tych zasad.
Rejestracja konta jest jednoznaczna z akceptacją zasad.

2017 © immortaltorrent.pl


Najlepsze strony Torrentowe