Torrentów: 146437      Ranga: Gosc               Stwórz konto Odzyskiwanie hasła


Kategorie
Filmy
 ⇒ DivX - XviD
 ⇒ RMVB
 ⇒ DVD-R
 ⇒ TV + Seriale
 ⇒ HDTV-HD
 ⇒ VCD - SVCD
 ⇒ x 264
 ⇒  3D
Gry
 ⇒ Gry PC
 ⇒ Gry Konsole
 ⇒ xbox360
Muzyka
 ⇒ Muzyka
 ⇒ Teledyski/Koncerty
Książki - Komiksy
 ⇒ E-Booki + Audio
 ⇒ Komiksy
Inne
 ⇒ XXX
 ⇒ Dla Dzieci
 ⇒ Sport
 ⇒ Pozostałe - Różne
 ⇒ Manga - Anime
 ⇒ GSM - PDA
Aplikacje
 ⇒ Windows
 ⇒ Linux + Macintosh



Detale torrenta

Jet Li Collection - Part 20/37 - The Enforcer *1995* [DVDRip.DivX] [Napisy PL]
Kondycja:
Dodane: 26/12/2008
Rozmiar: 779.14 MB
Uploader: Anonimowy
seed(ów): 0
leecher(ów): 1
Pobrane: 391





Ocena: N/A

Polski tytu³: ?
Oryginalny: Enforcer, The
Produkcja: Hongkong
Gatunek: Sztuki walki, Akcja
Data premiery: 1994
Re¿yseria: Corey Yuen
Czas trwania: 105 min

Filmweb: 8,10/10 ( 31 g³osów )
http://www.filmweb.pl/f35794/Gei+ba+ba+de+xin,1995

OPIS:

Kung Wei jest tajniakiem, który otrzymuje zadanie przenikniêcia w szeregi Triady. Oczywi¶cie sytuacja siê komplikuje, kiedy jego prawdziwa to¿samo¶æ wychodzi na jaw. Wei musi samotnie stawiæ czo³a gangsterom, a stawk± w tej walce jest ¿ycie jego i jego rodziny.

Obsada:

Jet Li: Kung Wei
Damian Lau: Szef

Info:

Video
Format : MPEG-4 Visual
Format settings, BVOP : Yes
Format settings, QPel : No
Format settings, GMC : No warppoints
Format settings, Matrix : Default
Muxing mode : Packed bitstream
Codec ID : DX50
Codec ID/Hint : DivX 5
Duration : 1h 44mn
Bit rate : 900 Kbps
Width : 512 pixels
Height : 224 pixels
Display aspect ratio : 2.25
Frame rate : 29.970 fps
Resolution : 24 bits
Colorimetry : 4:2:0
Scan type : Progressive
Bits/(Pixel*Frame) : 0.262
Stream size : 674 MiB (87%)
Writing library : DivX 5.0.5 Beta(Tahanea) (UTC 2003-01)

Audio
Format : MPEG Audio
Format version : Version 1
Format profile : Layer 3
Codec ID : 55
Codec ID/Hint : MP3
Duration : 1h 44mn
Bit rate mode : Constant
Bit rate : 128 Kbps
Channel(s) : 2 channels
Sampling rate : 44.1 KHz
Resolution : 16 bits
Stream size : 95.9 MiB (12%)
Alignment : Split accross interleaves
Interleave, duration : 33 ms (1.00 video frame)
Interleave, preload duration : 500 ms
Writing library : LAME3.92

Napisy PL - s±
Napisy Eng - brak
Jêzyk - English Dub
Podobne torrenty
[DivX - XviD] Jet Li Collection - Part 30/37 - Hero *2002* [DVDRip.DivX] [Napisy PL]
[DivX - XviD] Jet Li Collection - Fist of Legend Part 19/37*1994* [DVDRip.DivX] [Napisy PL]
[DivX - XviD] Jet Li Collection - Part 11/37 - Legend of Fong Sai-Yuk 2 *1993* [DVDRip.DivX] [Napisy PL]
[DivX - XviD] Jet Li Collection - Part 10/37 - Mistrz miecza II - Swordsman II *1992* [DVDRip.DivX] [Napisy ENG]
[DivX - XviD] Jet Li Collection - Part 14/37 - Kult z³a - The Evil Cult *1993* [DVDRip.DivX] [Napisy ENG]
[DivX - XviD] Henry Fonda Collection - Part 2 - Rój - The Swarm *1978* [2CD] [DVDRip] [DivX] [Napisy PL]
[DivX - XviD] John Wayne Collection - Part 15/100 - Rio Lobo *1970* [2CD] [DVDRip] [DivX] [Napisy PL]
[DivX - XviD] John Wayne Collection - Part 2/100 - Jet Pilot *1957* [DVDRip] [DivX] [Napisy PL]
[DivX - XviD] Jackie Chan Collection - Part 64/73 - Come Drink with Me *1966* [DVDRip] [DivX] [Napisy PL]
[DivX - XviD] Jackie Chan Collection - Part 30/73 - Protector *1985* [DVDRip] [DivX] [Napisy PL]
Szczegóły torrenta
Trackerhttp://tracker.torrenty.org:6969/announce
Kategoria:Filmy » DivX - XviD
Dodane26/12/2008 11:12:45
Ostatnie Uaktualnienie13/09/2013 10:52:45
NIKT JESZCZE NIE DODAŁ KOMENTARZA

DODAJ KOMENTARZ
Więcej Emoticon



Wstecz

Żaden z opisanych na stronie plików nie jest przetrzymywany na serwerze. Administrator strony immortaltorrent.pl nie może ponieść konsekwencji prawnych za to co użytkownicy zamieszczają lub piszą na stronie.
Nie możesz używać tego serwisu do rozpowszechniania lub ściągania materiałów do których nie masz odpowiednich praw lub licencji. Użytkownicy zobowiązani są do przestrzeganie tych zasad.
Rejestracja konta jest jednoznaczna z akceptacją zasad.

2018 © immortaltorrent.pl


Najlepsze strony Torrentowe