Torrentów: 134603      Ranga: Gość               Stwórz konto Odzyskiwanie hasła


Kategorie
Filmy
 ⇒ DivX - XviD
 ⇒ RMVB
 ⇒ DVD-R
 ⇒ TV + Seriale
 ⇒ HDTV-HD
 ⇒ VCD - SVCD
 ⇒ x 264
 ⇒  3D
Gry
 ⇒ Gry PC
 ⇒ Gry Konsole
 ⇒ xbox360
Muzyka
 ⇒ Muzyka
 ⇒ Teledyski/Koncerty
Książki - Komiksy
 ⇒ E-Booki + Audio
 ⇒ Komiksy
Inne
 ⇒ XXX
 ⇒ Dla Dzieci
 ⇒ Sport
 ⇒ Pozostałe - Różne
 ⇒ Manga - Anime
 ⇒ GSM - PDA
Aplikacje
 ⇒ Windows
 ⇒ Linux + Macintosh



Detale torrenta

Stretch (2014) [BRRip][XviD-torentup] [Lektor PL]
Kondycja:
Dodane: 07/01/2017
Rozmiar: 699.92 MB
Uploader: torentup

seed(ów): 147
leecher(ów): 24
Pobrane: 563





Ocena: N/A

=====================
INFO
================

Produkcja: USA
Gatunek: Komedia, Akcja
Premiera: 20 marca 2014 (świat)
Reżyseria: Joe Carnahan
Scenariusz: Joe Carnahan


=====================
OPIS
====================

Szykuje się niezła jazda! Reżyser "Asa w rękawie" zaprasza na spotkanie z Kevinem Stretchem - kierowcą po przejściach. Kiedy jeżdżący limuzyną po Hollywood Stretch potrzebuje szybkiej gotówki na spłatę długów, zaciągniętych u mafii, zgadza się na kurs z miliarderem - w nadziei na suty napiwek. Ale ekscentryczny klient nie myśli o napiwkach, woli smakować nocne przygody i wyuzdany seks. Niepokojąca wizja spotkania z mafią z pustymi rękami staje się coraz bardziej realna.


=====================
OBSADA
====================

★ Patrick Wilson .... Stretch
★ Matthew Willig .... Boris
★ Mindy Robinson .... Rosyjska prostytutka
★ Cassandra Starr .... Tancerka w klubie
★ Jacqui Holland .... Prostytutka
★ Shaun Toub .... Nasseem
★ Ryan O`Nan .... Agent Hudack, zamaskowany kamerdyner
★ Anne McDaniels .... Tancerka egzotyczna Ignacia

=====================
DANE TECHNICZNE
=====================

Format                         : AVI
Format/Info                    : Audio Video Interleave
File size                      : 700 MiB
Duration                       : 1h 34mn
Overall bit rate               : 1 038 Kbps
Writing application            : VirtualDubMod 1.5.10.2 (build 2540/release)
Writing library                : VirtualDubMod build 2540/release

Video
ID                             : 0
Format                         : MPEG-4 Visual
Format profile                 : Advanced Simple@L5
Format settings, BVOP          : 2
Format settings, QPel          : No
Format settings, GMC           : No warppoints
Format settings, Matrix        : Default (H.263)
Muxing mode                    : Packed bitstream
Codec ID                       : XVID
Codec ID/Hint                  : XviD
Duration                       : 1h 34mn
Bit rate                       : 900 Kbps
Width                          : 640 pixels
Height                         : 272 pixels
Display aspect ratio           : 2.35:1
Frame rate                     : 23.976 fps
Color space                    : YUV
Chroma subsampling             : 4:2:0
Bit depth                      : 8 bits
Scan type                      : Progressive
Compression mode               : Lossy
Bits/(Pixel*Frame)             : 0.216
Stream size                    : 607 MiB (87%)
Writing library                : XviD 65

Audio
ID                             : 1
Format                         : MPEG Audio
Format version                 : Version 1
Format profile                 : Layer 3
Mode                           : Joint stereo
Codec ID                       : 55
Codec ID/Hint                  : MP3
Duration                       : 1h 34mn
Bit rate mode                  : Constant
Bit rate                       : 128 Kbps
Channel(s)                     : 2 channels
Sampling rate                  : 48.0 KHz
Compression mode               : Lossy
Stream size                    : 86.3 MiB (12%)
Alignment                      : Aligned on interleaves
Interleave, duration           : 42 ms (1.00 video frame)
Interleave, preload duration   : 504 ms

Podobne torrenty
[DivX - XviD] Stretch *2014* [720p] [BRRip] [XviD] [AC3-K12] [Lektor PL]
[DivX - XviD] Uwiązani - Men Women and Children (2014) [BRRip] [XviD-torentup] [Lektor PL]
[DivX - XviD] Stretch *2014* [DVDRip] [XviD-NN] [Lektor PL]
[DivX - XviD] 22 Jump Street (2014) [BDRip] [XviD-torentup] [Lektor PL]
[DivX - XviD] Gamoń Le Corniaud (1965) [AC3][BRRip][XviD-torentup] [Lektor PL]
[Dla Dzieci] Lego Hero Factory (2010)[BRRip][Xvid-torentup][Lektor PL]
[DivX - XviD] Szybcy i wściekli 7 - Furious 7 (2015) [BRRip] [XviD-torentup] [Lektor PL]
[DivX - XviD] Ostatni Sprawiedliwy - Last Man Standing (1996) [BRRip] [XviD-torentup] [Lektor PL]
[DivX - XviD] Duet na żółtych papierach - Are You Here (2013) [BRRip.XviD-torentup] [Lektor PL]
[DivX - XviD] Ostatni Sprawiedliwy - Last Man Standing (1996) [BRRip] [XviD-torentup] [Lektor PL]
Szczegóły torrenta
Trackerhttp://tracker.filetracker.pl:8089/announce
Multitracker http://tracker.filetracker.pl:8089/announce
http://tracker.free-torrents.pl/announce
http://tracker.streettorrent.pl:80/announce
http://tracker.torrenty.org:6969/announce
http://tracker.aletorrenty.pl:2710/announce
http://tracker.pubt.net:2710/announce
http://94.228.192.98/announce
http://www.tlv.cc:7777/announce
http://retracker.omsk.ru:2710/announce
http://tracker.immortaltorrent.pl/announce
udp://open.demonii.com:1337/announce
http://tracker.best-torrents.net:6969/announce
udp://torrent.gresille.org:80/announce
udp://9.rarbg.me:2710/announce
udp://eddie4.nl:6969/announce
udp://tracker.leechers-paradise.org:6969/announce
udp://tracker4.piratux.com:6969/announce
udp://www.eddie4.nl:6969/announce
udp://tracker.openbittorrent.com:80/announce
udp://tracker.publicbt.com:80/announce
udp://ipv4.tracker.harry.lu:80/announce
udp://tracker.publicbt.com/announce
udp://shadowshq.eddie4.nl:6969/announce
udp://9.rarbg.com:2710/announce
udp://11.rarbg.com:80/announce
udp://10.rarbg.com/announce
udp://tracker.istole.it:80/announce
udp://exodus.desync.com:6969
udp://tracker.prq.to/announce
udp://tracker.openbittorrent.com:80/announce
udp://tracker.publicbt.com:80/announce

Kategoria:Filmy » DivX - XviD
Dodane07/01/2017 05:01:47
Ostatnie Uaktualnienie08/01/2017 17:39:04
Pokaż/Ukryj pliki:
5 plików
NIKT JESZCZE NIE DODAŁ KOMENTARZA

DODAJ KOMENTARZ
Więcej Emoticon



Wstecz

Żaden z opisanych na stronie plików nie jest przetrzymywany na serwerze. Administrator strony immortaltorrent.pl nie może ponieść konsekwencji prawnych za to co użytkownicy zamieszczają lub piszą na stronie.
Nie możesz używać tego serwisu do rozpowszechniania lub ściągania materiałów do których nie masz odpowiednich praw lub licencji. Użytkownicy zobowiązani są do przestrzeganie tych zasad.
Rejestracja konta jest jednoznaczna z akceptacją zasad.

2017 © immortaltorrent.pl


Najlepsze strony Torrentowe